  0
SECTION
  2
HEADER
  9
$ACADVER
  1
AC1018
  9
$ACADMAINTVER
 70
     0
  9
$DWGCODEPAGE
  3
ANSI_932
  9
$INSBASE
 10
0.0
 20
0.0
 30
0.0
  9
$EXTMIN
 10
-0.5
 20
-0.5
 30
-0.5
  9
$EXTMAX
 10
5.0
 20
5.0
 30
5.0
  9
$LIMMIN
 10
-0.5
 20
-0.5
  9
$LIMMAX
 10
5.0
 20
5.0
  9
$ORTHOMODE
 70
     0
  9
$REGENMODE
 70
     1
  9
$FILLMODE
 70
     1
  9
$QTEXTMODE
 70
     0
  9
$MIRRTEXT
 70
     1
  9
$LTSCALE
 40
1.0
  9
$ATTMODE
 70
     1
  9
$TEXTSIZE
 40
0.2
  9
$TRACEWID
 40
0.05
  9
$TEXTSTYLE
  7
Standard
  9
$CLAYER
  8
0
  9
$CELTYPE
  6
ByLayer
  9
$CECOLOR
 62
   256
  9
$CELTSCALE
 40
1.0
  9
$DISPSILH
 70
     0
  9
$DIMSCALE
 40
1.0
  9
$DIMASZ
 40
0.18
  9
$DIMEXO
 40
0.0625
  9
$DIMDLI
 40
0.38
  9
$DIMRND
 40
0.0
  9
$DIMDLE
 40
0.0
  9
$DIMEXE
 40
0.18
  9
$DIMTP
 40
0.0
  9
$DIMTM
 40
0.0
  9
$DIMTXT
 40
0.18
  9
$DIMCEN
 40
0.09
  9
$DIMTSZ
 40
0.0
  9
$DIMTOL
 70
     0
  9
$DIMLIM
 70
     0
  9
$DIMTIH
 70
     1
  9
$DIMTOH
 70
     1
  9
$DIMSE1
 70
     0
  9
$DIMSE2
 70
     0
  9
$DIMTAD
 70
     0
  9
$DIMZIN
 70
     0
  9
$DIMBLK
  1

  9
$DIMASO
 70
     1
  9
$DIMSHO
 70
     1
  9
$DIMPOST
  1

  9
$DIMAPOST
  1

  9
$DIMALT
 70
     0
  9
$DIMALTD
 70
     2
  9
$DIMALTF
 40
25.4
  9
$DIMLFAC
 40
1.0
  9
$DIMTOFL
 70
     0
  9
$DIMTVP
 40
0.0
  9
$DIMTIX
 70
     0
  9
$DIMSOXD
 70
     0
  9
$DIMSAH
 70
     0
  9
$DIMBLK1
  1

  9
$DIMBLK2
  1

  9
$DIMSTYLE
  2
Standard
  9
$DIMCLRD
 70
     0
  9
$DIMCLRE
 70
     0
  9
$DIMCLRT
 70
     0
  9
$DIMTFAC
 40
1.0
  9
$DIMGAP
 40
0.09
  9
$DIMJUST
 70
     0
  9
$DIMSD1
 70
     0
  9
$DIMSD2
 70
     0
  9
$DIMTOLJ
 70
     1
  9
$DIMTZIN
 70
     0
  9
$DIMALTZ
 70
     0
  9
$DIMALTTZ
 70
     0
  9
$DIMUPT
 70
     0
  9
$DIMDEC
 70
     4
  9
$DIMTDEC
 70
     4
  9
$DIMALTU
 70
     2
  9
$DIMALTTD
 70
     2
  9
$DIMTXSTY
  7
Standard
  9
$DIMAUNIT
 70
     0
  9
$DIMADEC
 70
     0
  9
$DIMALTRND
 40
0.0
  9
$DIMAZIN
 70
     0
  9
$DIMDSEP
 70
    46
  9
$DIMATFIT
 70
     3
  9
$DIMFRAC
 70
     0
  9
$DIMLDRBLK
  1

  9
$DIMLUNIT
 70
     2
  9
$DIMLWD
 70
    -2
  9
$DIMLWE
 70
    -2
  9
$DIMTMOVE
 70
     0
  9
$LUNITS
 70
     2
  9
$LUPREC
 70
     4
  9
$SKETCHINC
 40
0.1
  9
$FILLETRAD
 40
0.5
  9
$AUNITS
 70
     0
  9
$AUPREC
 70
     0
  9
$MENU
  1
.
  9
$ELEVATION
 40
0.0
  9
$PELEVATION
 40
0.0
  9
$THICKNESS
 40
0.0
  9
$LIMCHECK
 70
     0
  9
$CHAMFERA
 40
0.5
  9
$CHAMFERB
 40
0.5
  9
$CHAMFERC
 40
1.0
  9
$CHAMFERD
 40
0.0
  9
$SKPOLY
 70
     0
  9
$TDCREATE
 40
2455590.659892755
  9
$TDUCREATE
 40
2455590.284892755
  9
$TDUPDATE
 40
2455590.659892766
  9
$TDUUPDATE
 40
2455590.284892766
  9
$TDINDWG
 40
0.0000000116
  9
$TDUSRTIMER
 40
0.0000000116
  9
$USRTIMER
 70
     1
  9
$ANGBASE
 50
0.0
  9
$ANGDIR
 70
     0
  9
$PDMODE
 70
     0
  9
$PDSIZE
 40
0.0
  9
$PLINEWID
 40
0.0
  9
$SPLFRAME
 70
     0
  9
$SPLINETYPE
 70
     6
  9
$SPLINESEGS
 70
     8
  9
$HANDSEED
  5
279
  9
$SURFTAB1
 70
     6
  9
$SURFTAB2
 70
     6
  9
$SURFTYPE
 70
     6
  9
$SURFU
 70
     6
  9
$SURFV
 70
     6
  9
$UCSBASE
  2

  9
$UCSNAME
  2

  9
$UCSORG
 10
0.0
 20
0.0
 30
0.0
  9
$UCSXDIR
 10
1.0
 20
0.0
 30
0.0
  9
$UCSYDIR
 10
0.0
 20
1.0
 30
0.0
  9
$UCSORTHOREF
  2

  9
$UCSORTHOVIEW
 70
     0
  9
$UCSORGTOP
 10
0.0
 20
0.0
 30
0.0
  9
$UCSORGBOTTOM
 10
0.0
 20
0.0
 30
0.0
  9
$UCSORGLEFT
 10
0.0
 20
0.0
 30
0.0
  9
$UCSORGRIGHT
 10
0.0
 20
0.0
 30
0.0
  9
$UCSORGFRONT
 10
0.0
 20
0.0
 30
0.0
  9
$UCSORGBACK
 10
0.0
 20
0.0
 30
0.0
  9
$PUCSBASE
  2

  9
$PUCSNAME
  2

  9
$PUCSORG
 10
0.0
 20
0.0
 30
0.0
  9
$PUCSXDIR
 10
1.0
 20
0.0
 30
0.0
  9
$PUCSYDIR
 10
0.0
 20
1.0
 30
0.0
  9
$PUCSORTHOREF
  2

  9
$PUCSORTHOVIEW
 70
     0
  9
$PUCSORGTOP
 10
0.0
 20
0.0
 30
0.0
  9
$PUCSORGBOTTOM
 10
0.0
 20
0.0
 30
0.0
  9
$PUCSORGLEFT
 10
0.0
 20
0.0
 30
0.0
  9
$PUCSORGRIGHT
 10
0.0
 20
0.0
 30
0.0
  9
$PUCSORGFRONT
 10
0.0
 20
0.0
 30
0.0
  9
$PUCSORGBACK
 10
0.0
 20
0.0
 30
0.0
  9
$USERI1
 70
     0
  9
$USERI2
 70
     0
  9
$USERI3
 70
     0
  9
$USERI4
 70
     0
  9
$USERI5
 70
     0
  9
$USERR1
 40
0.0
  9
$USERR2
 40
0.0
  9
$USERR3
 40
0.0
  9
$USERR4
 40
0.0
  9
$USERR5
 40
0.0
  9
$WORLDVIEW
 70
     1
  9
$SHADEDGE
 70
     3
  9
$SHADEDIF
 70
    70
  9
$TILEMODE
 70
     0
  9
$MAXACTVP
 70
    64
  9
$PINSBASE
 10
0.0
 20
0.0
 30
0.0
  9
$PLIMCHECK
 70
     0
  9
$PEXTMIN
 10
0.0
 20
0.0
 30
0.0
  9
$PEXTMAX
 10
594.0
 20
420.0
 30
0.0
  9
$PLIMMIN
 10
0.0
 20
0.0
  9
$PLIMMAX
 10
594.0
 20
420.0
  9
$UNITMODE
 70
     0
  9
$VISRETAIN
 70
     1
  9
$PLINEGEN
 70
     0
  9
$PSLTSCALE
 70
     1
  9
$TREEDEPTH
 70
  3020
  9
$CMLSTYLE
  2
Standard
  9
$CMLJUST
 70
     0
  9
$CMLSCALE
 40
1.0
  9
$PROXYGRAPHICS
 70
     1
  9
$MEASUREMENT
 70
     1
  9
$CELWEIGHT
370
    -1
  9
$ENDCAPS
280
     0
  9
$JOINSTYLE
280
     0
  9
$LWDISPLAY
290
     0
  9
$INSUNITS
 70
     4
  9
$HYPERLINKBASE
  1

  9
$STYLESHEET
  1

  9
$XEDIT
290
     1
  9
$CEPSNTYPE
380
     0
  9
$PSTYLEMODE
290
     1
  9
$FINGERPRINTGUID
  2
{8BFDBF8F-6B28-44EF-B10E-86C4C0560191}
  9
$VERSIONGUID
  2
{FAEB1C32-E019-11D5-929B-00C0DF256EC4}
  9
$EXTNAMES
290
     1
  9
$PSVPSCALE
 40
0.0
  9
$OLESTARTUP
290
     0
  9
$SORTENTS
280
   127
  9
$INDEXCTL
280
     0
  9
$HIDETEXT
280
     1
  9
$XCLIPFRAME
290
     0
  9
$HALOGAP
280
     0
  9
$OBSCOLOR
 70
   257
  9
$OBSLTYPE
280
     0
  9
$INTERSECTIONDISPLAY
280
     0
  9
$INTERSECTIONCOLOR
 70
   257
  9
$DIMASSOC
280
     2
  9
$PROJECTNAME
  1

  0
ENDSEC
  0
SECTION
  2
CLASSES
  0
CLASS
  1
ACDBDICTIONARYWDFLT
  2
AcDbDictionaryWithDefault
  3
ObjectDBX Classes
 90
        0
 91
        4
280
     0
281
     0
  0
CLASS
  1
VISUALSTYLE
  2
AcDbVisualStyle
  3
ObjectDBX Classes
 90
     4095
 91
        4
280
     0
281
     0
  0
CLASS
  1
SCALE
  2
AcDbScale
  3
ObjectDBX Classes
 90
     1153
 91
        4
280
     0
281
     0
  0
CLASS
  1
DICTIONARYVAR
  2
AcDbDictionaryVar
  3
ObjectDBX Classes
 90
        0
 91
        4
280
     0
281
     0
  0
ENDSEC
  0
SECTION
  2
TABLES
  0
TABLE
  2
VPORT
  5
8
330
0
100
AcDbSymbolTable
 70
    17
  0
VPORT
  5
29
330
8
100
AcDbSymbolTableRecord
100
AcDbViewportTableRecord
  2
DUMMY
 70
     0
 10
0.0
 20
0.0
 11
1.0
 21
1.0
 12
10.429907
 22
4.5
 13
0.0
 23
0.0
 14
0.5
 24
0.5
 15
0.5
 25
0.5
 16
0.0
 26
0.0
 36
1.0
 17
0.0
 27
0.0
 37
0.0
 40
9.0
 41
1.972973
 42
50.0
 43
0.0
 44
0.0
 50
0.0
 51
0.0
 71
     0
 72
   100
 73
     1
 74
     3
 75
     0
 76
     0
 77
     0
 78
     0
281
     0
 65
     1
110
0.0
120
0.0
130
0.0
111
1.0
121
0.0
131
0.0
112
0.0
122
1.0
132
0.0
 79
     0
146
0.0
  0
VPORT
  5
243
330
8
100
AcDbSymbolTableRecord
100
AcDbViewportTableRecord
  2
*ACTIVE
 70
     0
 10
0.0
 20
0.0
 11
1.0
 21
1.0
 12
0.0
 22
0.0
 13
0.0
 23
0.0
 14
0.5
 24
0.5
 15
0.5
 25
0.5
 16
0.0
 26
0.0
 36
1.0
 17
0.0
 27
0.0
 37
0.0
 40
203.2
 41
0.087386
 42
50.0
 43
583.111799
 44
-583.111799
 50
0.0
 51
0.0
 71
     0
 72
   100
 73
     1
 74
     3
 75
     0
 76
     0
 77
     0
 78
     0
281
     0
 65
     1
110
0.0
120
0.0
130
0.0
111
1.0
121
0.0
131
0.0
112
0.0
122
1.0
132
0.0
 79
     0
146
0.0
  0
VPORT
  5
244
330
8
100
AcDbSymbolTableRecord
100
AcDbViewportTableRecord
  2
L1
 70
     0
 10
0.0
 20
0.0
 11
1.0
 21
1.0
 12
0.0
 22
0.0
 13
0.0
 23
0.0
 14
0.5
 24
0.5
 15
0.5
 25
0.5
 16
0.0
 26
0.0
 36
1.0
 17
0.0
 27
0.0
 37
0.0
 40
203.2
 41
0.087386
 42
50.0
 43
583.111799
 44
-583.111799
 50
0.0
 51
0.0
 71
     0
 72
   100
 73
     1
 74
     3
 75
     0
 76
     0
 77
     0
 78
     0
281
     0
 65
     1
110
0.0
120
0.0
130
0.0
111
1.0
121
0.0
131
0.0
112
0.0
122
1.0
132
0.0
 79
     0
146
0.0
  0
VPORT
  5
245
330
8
100
AcDbSymbolTableRecord
100
AcDbViewportTableRecord
  2
L2
 70
     0
 10
0.0
 20
0.0
 11
0.5
 21
1.0
 12
0.0
 22
0.0
 13
0.0
 23
0.0
 14
0.5
 24
0.5
 15
0.5
 25
0.5
 16
0.0
 26
-1.0
 36
0.0
 17
0.0
 27
0.0
 37
0.0
 40
1166.223598
 41
0.015226
 42
50.0
 43
597.623778
 44
-597.623778
 50
0.0
 51
0.0
 71
     0
 72
   100
 73
     1
 74
     3
 75
     0
 76
     0
 77
     0
 78
     0
281
     0
 65
     1
110
0.0
120
0.0
130
0.0
111
1.0
121
0.0
131
0.0
112
0.0
122
1.0
132
0.0
 79
     0
146
0.0
  0
VPORT
  5
246
330
8
100
AcDbSymbolTableRecord
100
AcDbViewportTableRecord
  2
L2
 70
     0
 10
0.5
 20
0.0
 11
1.0
 21
1.0
 12
0.0
 22
0.0
 13
0.0
 23
0.0
 14
0.5
 24
0.5
 15
0.5
 25
0.5
 16
1.0
 26
0.0
 36
0.0
 17
0.0
 27
0.0
 37
0.0
 40
1166.223598
 41
0.015226
 42
50.0
 43
591.896891
 44
-591.896891
 50
0.0
 51
0.0
 71
     0
 72
   100
 73
     1
 74
     3
 75
     0
 76
     0
 77
     0
 78
     0
281
     0
 65
     1
110
0.0
120
0.0
130
0.0
111
1.0
121
0.0
131
0.0
112
0.0
122
1.0
132
0.0
 79
     0
146
0.0
  0
VPORT
  5
247
330
8
100
AcDbSymbolTableRecord
100
AcDbViewportTableRecord
  2
L3
 70
     0
 10
0.0
 20
0.5
 11
1.0
 21
1.0
 12
0.0
 22
0.0
 13
0.0
 23
0.0
 14
0.5
 24
0.5
 15
0.5
 25
0.5
 16
0.0
 26
0.0
 36
1.0
 17
0.0
 27
0.0
 37
0.0
 40
203.2
 41
0.087386
 42
50.0
 43
583.111799
 44
-583.111799
 50
0.0
 51
0.0
 71
     0
 72
   100
 73
     1
 74
     3
 75
     0
 76
     0
 77
     0
 78
     0
281
     0
 65
     1
110
0.0
120
0.0
130
0.0
111
1.0
121
0.0
131
0.0
112
0.0
122
1.0
132
0.0
 79
     0
146
0.0
  0
VPORT
  5
248
330
8
100
AcDbSymbolTableRecord
100
AcDbViewportTableRecord
  2
L3
 70
     0
 10
0.0
 20
0.0
 11
1.0
 21
0.5
 12
0.0
 22
0.0
 13
0.0
 23
0.0
 14
0.5
 24
0.5
 15
0.5
 25
0.5
 16
0.0
 26
-1.0
 36
0.0
 17
0.0
 27
0.0
 37
0.0
 40
1166.223598
 41
0.015226
 42
50.0
 43
597.623778
 44
-597.623778
 50
0.0
 51
0.0
 71
     0
 72
   100
 73
     1
 74
     3
 75
     0
 76
     0
 77
     0
 78
     0
281
     0
 65
     1
110
0.0
120
0.0
130
0.0
111
1.0
121
0.0
131
0.0
112
0.0
122
1.0
132
0.0
 79
     0
146
0.0
  0
VPORT
  5
249
330
8
100
AcDbSymbolTableRecord
100
AcDbViewportTableRecord
  2
L4
 70
     0
 10
0.0
 20
0.5
 11
0.5
 21
1.0
 12
0.0
 22
0.0
 13
0.0
 23
0.0
 14
0.5
 24
0.5
 15
0.5
 25
0.5
 16
0.0
 26
0.0
 36
1.0
 17
0.0
 27
0.0
 37
0.0
 40
203.2
 41
0.087386
 42
50.0
 43
583.111799
 44
-583.111799
 50
0.0
 51
0.0
 71
     0
 72
   100
 73
     1
 74
     3
 75
     0
 76
     0
 77
     0
 78
     0
281
     0
 65
     1
110
0.0
120
0.0
130
0.0
111
1.0
121
0.0
131
0.0
112
0.0
122
1.0
132
0.0
 79
     0
146
0.0
  0
VPORT
  5
24A
330
8
100
AcDbSymbolTableRecord
100
AcDbViewportTableRecord
  2
L4
 70
     0
 10
0.0
 20
0.0
 11
0.5
 21
0.5
 12
0.0
 22
0.0
 13
0.0
 23
0.0
 14
0.5
 24
0.5
 15
0.5
 25
0.5
 16
0.0
 26
-1.0
 36
0.0
 17
0.0
 27
0.0
 37
0.0
 40
1166.223598
 41
0.015226
 42
50.0
 43
597.623778
 44
-597.623778
 50
0.0
 51
0.0
 71
     0
 72
   100
 73
     1
 74
     3
 75
     0
 76
     0
 77
     0
 78
     0
281
     0
 65
     1
110
0.0
120
0.0
130
0.0
111
1.0
121
0.0
131
0.0
112
0.0
122
1.0
132
0.0
 79
     0
146
0.0
  0
VPORT
  5
24B
330
8
100
AcDbSymbolTableRecord
100
AcDbViewportTableRecord
  2
L4
 70
     0
 10
0.5
 20
0.0
 11
1.0
 21
0.5
 12
0.0
 22
0.0
 13
0.0
 23
0.0
 14
0.5
 24
0.5
 15
0.5
 25
0.5
 16
1.0
 26
0.0
 36
0.0
 17
0.0
 27
0.0
 37
0.0
 40
1166.223598
 41
0.015226
 42
50.0
 43
591.896891
 44
-591.896891
 50
0.0
 51
0.0
 71
     0
 72
   100
 73
     1
 74
     3
 75
     0
 76
     0
 77
     0
 78
     0
281
     0
 65
     1
110
0.0
120
0.0
130
0.0
111
1.0
121
0.0
131
0.0
112
0.0
122
1.0
132
0.0
 79
     0
146
0.0
  0
VPORT
  5
24C
330
8
100
AcDbSymbolTableRecord
100
AcDbViewportTableRecord
  2
L4
 70
     0
 10
0.5
 20
0.5
 11
1.0
 21
1.0
 12
0.0
 22
0.0
 13
0.0
 23
0.0
 14
0.5
 24
0.5
 15
0.5
 25
0.5
 16
0.5773502691896258
 26
-0.5773502691896258
 36
0.5773502691896258
 17
0.0
 27
0.0
 37
0.0
 40
1142.053035
 41
0.015548
 42
50.0
 43
594.221683
 44
-594.221683
 50
0.0
 51
0.0
 71
     0
 72
   100
 73
     1
 74
     3
 75
     0
 76
     0
 77
     0
 78
     0
281
     0
 65
     1
110
0.0
120
0.0
130
0.0
111
1.0
121
0.0
131
0.0
112
0.0
122
1.0
132
0.0
 79
     0
146
0.0
  0
VPORT
  5
24D
330
8
100
AcDbSymbolTableRecord
100
AcDbViewportTableRecord
  2
L6
 70
     0
 10
0.0
 20
0.5
 11
0.333333
 21
1.0
 12
0.0
 22
0.0
 13
0.0
 23
0.0
 14
0.5
 24
0.5
 15
0.5
 25
0.5
 16
0.7188730927569434
 26
-0.5850486126764431
 36
0.3754192287502549
 17
0.0
 27
0.0
 37
0.0
 40
1205.303078
 41
0.014732
 42
50.0
 43
623.897329
 44
-623.897329
 50
0.0
 51
0.0
 71
     0
 72
   100
 73
     1
 74
     3
 75
     0
 76
     0
 77
     0
 78
     0
281
     0
 65
     1
110
0.0
120
0.0
130
0.0
111
1.0
121
0.0
131
0.0
112
0.0
122
1.0
132
0.0
 79
     0
146
0.0
  0
VPORT
  5
24E
330
8
100
AcDbSymbolTableRecord
100
AcDbViewportTableRecord
  2
L6
 70
     0
 10
0.0
 20
0.0
 11
0.333333
 21
0.5
 12
0.0
 22
0.0
 13
0.0
 23
0.0
 14
0.5
 24
0.5
 15
0.5
 25
0.5
 16
-1.0
 26
0.0
 36
0.0
 17
0.0
 27
0.0
 37
0.0
 40
1166.223598
 41
0.015226
 42
50.0
 43
591.896891
 44
-591.896891
 50
0.0
 51
0.0
 71
     0
 72
   100
 73
     1
 74
     3
 75
     0
 76
     0
 77
     0
 78
     0
281
     0
 65
     1
110
0.0
120
0.0
130
0.0
111
1.0
121
0.0
131
0.0
112
0.0
122
1.0
132
0.0
 79
     0
146
0.0
  0
VPORT
  5
24F
330
8
100
AcDbSymbolTableRecord
100
AcDbViewportTableRecord
  2
L6
 70
     0
 10
0.333333
 20
0.5
 11
0.666667
 21
1.0
 12
0.0
 22
0.0
 13
0.0
 23
0.0
 14
0.5
 24
0.5
 15
0.5
 25
0.5
 16
0.0
 26
0.0
 36
1.0
 17
0.0
 27
0.0
 37
0.0
 40
203.2
 41
0.087386
 42
50.0
 43
583.111799
 44
-583.111799
 50
0.0
 51
0.0
 71
     0
 72
   100
 73
     1
 74
     3
 75
     0
 76
     0
 77
     0
 78
     0
281
     0
 65
     1
110
0.0
120
0.0
130
0.0
111
1.0
121
0.0
131
0.0
112
0.0
122
1.0
132
0.0
 79
     0
146
0.0
  0
VPORT
  5
250
330
8
100
AcDbSymbolTableRecord
100
AcDbViewportTableRecord
  2
L6
 70
     0
 10
0.333333
 20
0.0
 11
0.666667
 21
0.5
 12
0.0
 22
0.0
 13
0.0
 23
0.0
 14
0.5
 24
0.5
 15
0.5
 25
0.5
 16
0.0
 26
-1.0
 36
0.0
 17
0.0
 27
0.0
 37
0.0
 40
1166.223598
 41
0.015226
 42
50.0
 43
597.623778
 44
-597.623778
 50
0.0
 51
0.0
 71
     0
 72
   100
 73
     1
 74
     3
 75
     0
 76
     0
 77
     0
 78
     0
281
     0
 65
     1
110
0.0
120
0.0
130
0.0
111
1.0
121
0.0
131
0.0
112
0.0
122
1.0
132
0.0
 79
     0
146
0.0
  0
VPORT
  5
251
330
8
100
AcDbSymbolTableRecord
100
AcDbViewportTableRecord
  2
L6
 70
     0
 10
0.666667
 20
0.5
 11
1.0
 21
1.0
 12
0.0
 22
0.0
 13
0.0
 23
0.0
 14
0.5
 24
0.5
 15
0.5
 25
0.5
 16
0.5773502691896258
 26
-0.5773502691896258
 36
0.5773502691896258
 17
0.0
 27
0.0
 37
0.0
 40
1142.053035
 41
0.015548
 42
50.0
 43
594.221683
 44
-594.221683
 50
0.0
 51
0.0
 71
     0
 72
   100
 73
     1
 74
     3
 75
     0
 76
     0
 77
     0
 78
     0
281
     0
 65
     1
110
0.0
120
0.0
130
0.0
111
1.0
121
0.0
131
0.0
112
0.0
122
1.0
132
0.0
 79
     0
146
0.0
  0
VPORT
  5
252
330
8
100
AcDbSymbolTableRecord
100
AcDbViewportTableRecord
  2
L6
 70
     0
 10
0.666667
 20
0.0
 11
1.0
 21
0.5
 12
0.0
 22
0.0
 13
0.0
 23
0.0
 14
0.5
 24
0.5
 15
0.5
 25
0.5
 16
1.0
 26
0.0
 36
0.0
 17
0.0
 27
0.0
 37
0.0
 40
1166.223598
 41
0.015226
 42
50.0
 43
591.896891
 44
-591.896891
 50
0.0
 51
0.0
 71
     0
 72
   100
 73
     1
 74
     3
 75
     0
 76
     0
 77
     0
 78
     0
281
     0
 65
     1
110
0.0
120
0.0
130
0.0
111
1.0
121
0.0
131
0.0
112
0.0
122
1.0
132
0.0
 79
     0
146
0.0
  0
ENDTAB
  0
TABLE
  2
LTYPE
  5
5
330
0
100
AcDbSymbolTable
 70
     7
  0
LTYPE
  5
14
330
5
100
AcDbSymbolTableRecord
100
AcDbLinetypeTableRecord
  2
BYBLOCK
 70
     0
  3

 72
    65
 73
     0
 40
0.0
  0
LTYPE
  5
15
330
5
100
AcDbSymbolTableRecord
100
AcDbLinetypeTableRecord
  2
BYLAYER
 70
     0
  3

 72
    65
 73
     0
 40
0.0
  0
LTYPE
  5
16
330
5
100
AcDbSymbolTableRecord
100
AcDbLinetypeTableRecord
  2
CONTINUOUS
 70
     0
  3
Solid line
 72
    65
 73
     0
 40
0.0
  0
LTYPE
  5
3C
330
5
100
AcDbSymbolTableRecord
100
AcDbLinetypeTableRecord
  2
DASHED
 70
     0
  3
__ __ __ __ __ __ __ __ __
 72
    65
 73
     2
 40
25.72
 49
12.86
 74
     4
 75
     0
340
0
 46
0.0
 50
0.0
 44
0.0
 45
0.0
 49
-12.86
 74
     4
 75
     0
340
0
 46
0.0
 50
0.0
 44
0.0
 45
0.0
  0
LTYPE
  5
3D
330
5
100
AcDbSymbolTableRecord
100
AcDbLinetypeTableRecord
  2
HIDDEN
 70
     0
  3
_ _ _ _ _ _ _ _ _ _ _ _ _ _ _
 72
    65
 73
     2
 40
0.5
 49
0.25
 74
     4
 75
     0
340
0
 46
0.0
 50
0.0
 44
0.0
 45
0.0
 49
-0.25
 74
     4
 75
     0
340
0
 46
0.0
 50
0.0
 44
0.0
 45
0.0
  0
LTYPE
  5
3E
330
5
100
AcDbSymbolTableRecord
100
AcDbLinetypeTableRecord
  2
PHANTOM
 70
     0
  3
____ _ _ ____ _ _ _____ _ _ ____
 72
    65
 73
     6
 40
50.5
 49
18.0
 74
     4
 75
     0
340
0
 46
0.0
 50
0.0
 44
0.0
 45
0.0
 49
-6.5
 74
     4
 75
     0
340
0
 46
0.0
 50
0.0
 44
0.0
 45
0.0
 49
6.5
 74
     4
 75
     0
340
0
 46
0.0
 50
0.0
 44
0.0
 45
0.0
 49
-6.5
 74
     4
 75
     0
340
0
 46
0.0
 50
0.0
 44
0.0
 45
0.0
 49
6.5
 74
     4
 75
     0
340
0
 46
0.0
 50
0.0
 44
0.0
 45
0.0
 49
-6.5
 74
     4
 75
     0
340
0
 46
0.0
 50
0.0
 44
0.0
 45
0.0
  0
LTYPE
  5
3F
330
5
100
AcDbSymbolTableRecord
100
AcDbLinetypeTableRecord
  2
CENTER
 70
     0
  3
____ _ ____ _ ____ _ ____
 72
    65
 73
     4
 40
47.4
 49
22.0
 74
     4
 75
     0
340
0
 46
0.0
 50
0.0
 44
0.0
 45
0.0
 49
-8.5
 74
     4
 75
     0
340
0
 46
0.0
 50
0.0
 44
0.0
 45
0.0
 49
8.5
 74
     4
 75
     0
340
0
 46
0.0
 50
0.0
 44
0.0
 45
0.0
 49
-8.5
 74
     4
 75
     0
340
0
 46
0.0
 50
0.0
 44
0.0
 45
0.0
  0
LTYPE
  5
40
330
5
100
AcDbSymbolTableRecord
100
AcDbLinetypeTableRecord
  2
DOT
 70
     0
  3
.........................
 72
    65
 73
     2
 40
10.0
 49
0.0
 74
     4
 75
     0
340
0
 46
0.0
 50
0.0
 44
0.0
 45
0.0
 49
-10.0
 74
     4
 75
     0
340
0
 46
0.0
 50
0.0
 44
0.0
 45
0.0
  0
LTYPE
  5
41
330
5
100
AcDbSymbolTableRecord
100
AcDbLinetypeTableRecord
  2
DASHDOT
 70
     0
  3
_._._._._._._._._._._._._._._._.
 72
    65
 73
     4
 40
70.0
 49
31.0
 74
     4
 75
     0
340
0
 46
0.0
 50
0.0
 44
0.0
 45
0.0
 49
-13.0
 74
     4
 75
     0
340
0
 46
0.0
 50
0.0
 44
0.0
 45
0.0
 49
13.0
 74
     4
 75
     0
340
0
 46
0.0
 50
0.0
 44
0.0
 45
0.0
 49
-13.0
 74
     4
 75
     0
340
0
 46
0.0
 50
0.0
 44
0.0
 45
0.0
  0
ENDTAB
  0
TABLE
  2
LAYER
  5
2
330
0
100
AcDbSymbolTable
 70
     5
  0
LAYER
  5
10
330
2
100
AcDbSymbolTableRecord
100
AcDbLayerTableRecord
  2
0
 70
     0
 62
     7
  6
CONTINUOUS
370
    -3
390
F
  0
LAYER
  5
43
330
2
100
AcDbSymbolTableRecord
100
AcDbLayerTableRecord
  2
ORTHO$9
 70
     0
 62
     7
420
 16777215
  6
CONTINUOUS
370
    -3
390
F
  0
LAYER
  5
5B
330
2
100
AcDbSymbolTableRecord
100
AcDbLayerTableRecord
  2
ORTHO$10
 70
     0
 62
     7
420
 16777215
  6
CONTINUOUS
370
    -3
390
F
  0
LAYER
  5
73
330
2
100
AcDbSymbolTableRecord
100
AcDbLayerTableRecord
  2
TOP$8
 70
     0
 62
     7
420
 16777215
  6
CONTINUOUS
370
    -3
390
F
  0
LAYER
  5
143
330
2
100
AcDbSymbolTableRecord
100
AcDbLayerTableRecord
  2
1
 70
     0
 62
     7
420
 16777215
  6
CONTINUOUS
370
    -3
390
F
  0
ENDTAB
  0
TABLE
  2
STYLE
  5
3
330
0
100
AcDbSymbolTable
 70
     4
  0
STYLE
  5
11
330
3
100
AcDbSymbolTableRecord
100
AcDbTextStyleTableRecord
  2
Standard
 70
     0
 40
0.0
 41
1.0
 50
0.0
 71
     0
 42
0.2
  3
txt
  4

  0
STYLE
  5
173
330
3
100
AcDbSymbolTableRecord
100
AcDbTextStyleTableRecord
  2
DEFAULT
 70
     0
 40
0.0
 41
1.0
 50
0.0
 71
     0
 42
0.2
  3
simplex.shx
  4

  0
STYLE
  5
174
330
3
100
AcDbSymbolTableRecord
100
AcDbTextStyleTableRecord
  2
DWGDirectTextStyle
 70
     0
 40
0.0
 41
1.0
 50
0.0
 71
     0
 42
0.2
  3
SIMPLEX
  4
bigfont
  0
STYLE
  5
216
330
3
100
AcDbSymbolTableRecord
100
AcDbTextStyleTableRecord
  2
ideas_kanji
 70
     0
 40
0.0
 41
1.0
 50
0.0
 71
     0
 42
0.2
  3
simplex.shx
  4
bigfont
  0
ENDTAB
  0
TABLE
  2
VIEW
  5
6
330
0
100
AcDbSymbolTable
 70
     8
  0
VIEW
  5
144
330
6
100
AcDbSymbolTableRecord
100
AcDbViewTableRecord
  2
TOP
 70
     0
 40
203.2
 10
0.0
 20
0.0
 41
261.8
 11
0.0
 21
0.0
 31
1.0
 12
0.0
 22
0.0
 32
0.0
 42
50.0
 43
583.111799
 44
-583.111799
 50
0.0
 71
     0
281
     0
 72
     0
  0
VIEW
  5
145
330
6
100
AcDbSymbolTableRecord
100
AcDbViewTableRecord
  2
FRONT
 70
     0
 40
1166.223598
 10
0.0
 20
0.0
 41
261.8
 11
0.0
 21
-1.0
 31
0.0
 12
0.0
 22
0.0
 32
0.0
 42
50.0
 43
597.623778
 44
-597.623778
 50
0.0
 71
     0
281
     0
 72
     0
  0
VIEW
  5
146
330
6
100
AcDbSymbolTableRecord
100
AcDbViewTableRecord
  2
RIGHT
 70
     0
 40
1166.223598
 10
0.0
 20
0.0
 41
203.2
 11
1.0
 21
0.0
 31
0.0
 12
0.0
 22
0.0
 32
0.0
 42
50.0
 43
591.896891
 44
-591.896891
 50
0.0
 71
     0
281
     0
 72
     0
  0
VIEW
  5
147
330
6
100
AcDbSymbolTableRecord
100
AcDbViewTableRecord
  2
BACK
 70
     0
 40
1166.223598
 10
0.0
 20
0.0
 41
261.8
 11
0.0
 21
1.0
 31
0.0
 12
0.0
 22
0.0
 32
0.0
 42
50.0
 43
597.623778
 44
-597.623778
 50
0.0
 71
     0
281
     0
 72
     0
  0
VIEW
  5
148
330
6
100
AcDbSymbolTableRecord
100
AcDbViewTableRecord
  2
BOTTOM
 70
     0
 40
203.2
 10
0.0
 20
0.0
 41
261.8
 11
0.0
 21
0.0
 31
-1.0
 12
0.0
 22
0.0
 32
0.0
 42
50.0
 43
583.111799
 44
-583.111799
 50
180.0
 71
     0
281
     0
 72
     0
  0
VIEW
  5
149
330
6
100
AcDbSymbolTableRecord
100
AcDbViewTableRecord
  2
LEFT
 70
     0
 40
1166.223598
 10
0.0
 20
0.0
 41
203.2
 11
-1.0
 21
0.0
 31
0.0
 12
0.0
 22
0.0
 32
0.0
 42
50.0
 43
591.896891
 44
-591.896891
 50
0.0
 71
     0
281
     0
 72
     0
  0
VIEW
  5
14A
330
6
100
AcDbSymbolTableRecord
100
AcDbViewTableRecord
  2
TFR-ISO
 70
     0
 40
1142.053035
 10
0.0
 20
0.0
 41
328.804653
 11
0.5773502691896258
 21
-0.5773502691896258
 31
0.5773502691896258
 12
0.0
 22
0.0
 32
0.0
 42
50.0
 43
594.221683
 44
-594.221683
 50
0.0
 71
     0
281
     0
 72
     0
  0
VIEW
  5
14B
330
6
100
AcDbSymbolTableRecord
100
AcDbViewTableRecord
  2
TFR-TRI
 70
     0
 40
1205.303078
 10
0.0
 20
0.0
 41
322.856005
 11
0.7188730927569434
 21
-0.5850486126764431
 31
0.3754192287502549
 12
0.0
 22
0.0
 32
0.0
 42
50.0
 43
623.897329
 44
-623.897329
 50
0.0
 71
     0
281
     0
 72
     0
  0
ENDTAB
  0
TABLE
  2
UCS
  5
7
330
0
100
AcDbSymbolTable
 70
     0
  0
ENDTAB
  0
TABLE
  2
APPID
  5
9
330
0
100
AcDbSymbolTable
 70
     1
  0
APPID
  5
12
330
9
100
AcDbSymbolTableRecord
100
AcDbRegAppTableRecord
  2
ACAD
 70
     0
  0
ENDTAB
  0
TABLE
  2
DIMSTYLE
  5
A
330
0
100
AcDbSymbolTable
 70
     1
100
AcDbDimStyleTable
  0
DIMSTYLE
105
27
102
{ACAD_REACTORS
330
17E
330
190
330
19C
330
1A8
330
1B4
330
1C0
330
1CB
330
1D7
330
1E3
330
1EF
330
1FB
330
207
330
213
330
220
330
229
330
232
330
23E
102
}
330
A
100
AcDbSymbolTableRecord
100
AcDbDimStyleTableRecord
  2
Standard
 70
     0
340
11
  0
ENDTAB
  0
TABLE
  2
BLOCK_RECORD
  5
1
330
0
100
AcDbSymbolTable
 70
    20
  0
BLOCK_RECORD
  5
1F
330
1
100
AcDbSymbolTableRecord
100
AcDbBlockTableRecord
  2
*Model_Space
340
22
  0
BLOCK_RECORD
  5
14C
330
1
100
AcDbSymbolTableRecord
100
AcDbBlockTableRecord
  2
*PAPER_SPACE
340
242
  0
BLOCK_RECORD
  5
171
330
1
100
AcDbSymbolTableRecord
100
AcDbBlockTableRecord
  2
dim1
340
0
  0
BLOCK_RECORD
  5
17F
330
1
100
AcDbSymbolTableRecord
100
AcDbBlockTableRecord
  2
_OPEN
340
0
  0
BLOCK_RECORD
  5
185
330
1
100
AcDbSymbolTableRecord
100
AcDbBlockTableRecord
  2
dim2
340
0
  0
BLOCK_RECORD
  5
191
330
1
100
AcDbSymbolTableRecord
100
AcDbBlockTableRecord
  2
dim3
340
0
  0
BLOCK_RECORD
  5
19D
330
1
100
AcDbSymbolTableRecord
100
AcDbBlockTableRecord
  2
dim4
340
0
  0
BLOCK_RECORD
  5
1A9
330
1
100
AcDbSymbolTableRecord
100
AcDbBlockTableRecord
  2
dim5
340
0
  0
BLOCK_RECORD
  5
1B5
330
1
100
AcDbSymbolTableRecord
100
AcDbBlockTableRecord
  2
dim6
340
0
  0
BLOCK_RECORD
  5
1C1
330
1
100
AcDbSymbolTableRecord
100
AcDbBlockTableRecord
  2
dim7
340
0
  0
BLOCK_RECORD
  5
1CC
330
1
100
AcDbSymbolTableRecord
100
AcDbBlockTableRecord
  2
dim8
340
0
  0
BLOCK_RECORD
  5
1D8
330
1
100
AcDbSymbolTableRecord
100
AcDbBlockTableRecord
  2
dim9
340
0
  0
BLOCK_RECORD
  5
1E4
330
1
100
AcDbSymbolTableRecord
100
AcDbBlockTableRecord
  2
dim10
340
0
  0
BLOCK_RECORD
  5
1F0
330
1
100
AcDbSymbolTableRecord
100
AcDbBlockTableRecord
  2
dim11
340
0
  0
BLOCK_RECORD
  5
1FC
330
1
100
AcDbSymbolTableRecord
100
AcDbBlockTableRecord
  2
dim12
340
0
  0
BLOCK_RECORD
  5
208
330
1
100
AcDbSymbolTableRecord
100
AcDbBlockTableRecord
  2
dim13
340
0
  0
BLOCK_RECORD
  5
214
330
1
100
AcDbSymbolTableRecord
100
AcDbBlockTableRecord
  2
dim14
340
0
  0
BLOCK_RECORD
  5
221
330
1
100
AcDbSymbolTableRecord
100
AcDbBlockTableRecord
  2
dim15
340
0
  0
BLOCK_RECORD
  5
22A
330
1
100
AcDbSymbolTableRecord
100
AcDbBlockTableRecord
  2
dim16
340
0
  0
BLOCK_RECORD
  5
233
330
1
100
AcDbSymbolTableRecord
100
AcDbBlockTableRecord
  2
dim17
340
0
  0
ENDTAB
  0
ENDSEC
  0
SECTION
  2
BLOCKS
  0
BLOCK
  5
20
330
1F
100
AcDbEntity
  8
0
100
AcDbBlockBegin
  2
*Model_Space
 70
     0
 10
0.0
 20
0.0
 30
0.0
  3
*Model_Space
  1

  0
ENDBLK
  5
21
330
1F
100
AcDbEntity
  8
0
100
AcDbBlockEnd
  0
BLOCK
  5
14D
330
14C
100
AcDbEntity
 67
     1
  8
0
100
AcDbBlockBegin
  2
*PAPER_SPACE
 70
     0
 10
0.0
 20
0.0
 30
0.0
  3
*PAPER_SPACE
  1

  0
ENDBLK
  5
14E
330
14C
100
AcDbEntity
 67
     1
  8
0
100
AcDbBlockEnd
  0
BLOCK
  5
17C
330
171
100
AcDbEntity
  8
0
100
AcDbBlockBegin
  2
dim1
 70
     0
 10
0.0
 20
0.0
 30
0.0
  3
dim1
  1

  0
MTEXT
  5
172
330
171
100
AcDbEntity
  8
1
  6
Continuous
 62
     4
100
AcDbMText
 10
557.82786
 20
201.324414
 30
0.0
 40
5.0
 41
0.0
 71
     7
 72
     5
  1
\W00.860;46\P
  7
DEFAULT
 11
6.123031769111886E-17
 21
1.0
 31
0.0
 73
     2
 44
0.722892
  0
LINE
  5
175
330
171
100
AcDbEntity
  8
1
 62
     4
100
AcDbLine
 10
500.224245
 20
181.124414
 30
0.0
 11
558.911193
 21
181.124414
 31
0.0
  0
LINE
  5
176
330
171
100
AcDbEntity
  8
1
 62
     4
100
AcDbLine
 10
500.224245
 20
227.124414
 30
0.0
 11
558.911193
 21
227.124414
 31
0.0
  0
LINE
  5
177
330
171
100
AcDbEntity
  8
1
 62
     4
100
AcDbLine
 10
557.411193
 20
181.124414
 30
0.0
 11
557.411193
 21
227.124414
 31
0.0
  0
LINE
  5
178
330
171
100
AcDbEntity
  8
1
 62
     4
100
AcDbLine
 10
557.411193
 20
181.124414
 30
0.0
 11
557.053927
 21
183.124413
 31
0.0
  0
LINE
  5
179
330
171
100
AcDbEntity
  8
1
 62
     4
100
AcDbLine
 10
557.411193
 20
181.124414
 30
0.0
 11
557.768458
 21
183.124415
 31
0.0
  0
LINE
  5
17A
330
171
100
AcDbEntity
  8
1
 62
     4
100
AcDbLine
 10
557.411193
 20
227.124414
 30
0.0
 11
557.768458
 21
225.124415
 31
0.0
  0
LINE
  5
17B
330
171
100
AcDbEntity
  8
1
 62
     4
100
AcDbLine
 10
557.411193
 20
227.124414
 30
0.0
 11
557.053927
 21
225.124413
 31
0.0
  0
ENDBLK
  5
17D
330
171
100
AcDbEntity
  8
0
100
AcDbBlockEnd
  0
BLOCK
  5
180
330
17F
100
AcDbEntity
  8
0
100
AcDbBlockBegin
  2
_OPEN
 70
     0
 10
0.0
 20
0.0
 30
0.0
  3
_OPEN
  1

  0
LINE
  5
182
330
17F
100
AcDbEntity
  8
0
  6
ByBlock
 62
     0
370
    -2
100
AcDbLine
 10
-1.0
 20
0.166667
 30
0.0
 11
0.0
 21
0.0
 31
0.0
  0
LINE
  5
183
330
17F
100
AcDbEntity
  8
0
  6
ByBlock
 62
     0
370
    -2
100
AcDbLine
 10
-1.0
 20
-0.166667
 30
0.0
 11
0.0
 21
0.0
 31
0.0
  0
LINE
  5
184
330
17F
100
AcDbEntity
  8
0
  6
ByBlock
 62
     0
370
    -2
100
AcDbLine
 10
0.0
 20
0.0
 30
0.0
 11
-1.0
 21
0.0
 31
0.0
  0
ENDBLK
  5
181
330
17F
100
AcDbEntity
  8
0
100
AcDbBlockEnd
  0
BLOCK
  5
18E
330
185
100
AcDbEntity
  8
0
100
AcDbBlockBegin
  2
dim2
 70
     0
 10
0.0
 20
0.0
 30
0.0
  3
dim2
  1

  0
MTEXT
  5
186
330
185
100
AcDbEntity
  8
1
  6
Continuous
 62
     4
100
AcDbMText
 10
578.447229
 20
195.249414
 30
0.0
 40
5.0
 41
0.0
 71
     7
 72
     5
  1
\W00.950;85.72\P
  7
DEFAULT
 11
6.123031769111886E-17
 21
1.0
 31
0.0
 73
     2
 44
0.722892
  0
LINE
  5
187
330
185
100
AcDbEntity
  8
1
 62
     4
100
AcDbLine
 10
415.611745
 20
246.986914
 30
0.0
 11
579.530562
 21
246.986914
 31
0.0
  0
LINE
  5
188
330
185
100
AcDbEntity
  8
1
 62
     4
100
AcDbLine
 10
415.611745
 20
161.261914
 30
0.0
 11
579.530562
 21
161.261914
 31
0.0
  0
LINE
  5
189
330
185
100
AcDbEntity
  8
1
 62
     4
100
AcDbLine
 10
578.030562
 20
246.986914
 30
0.0
 11
578.030562
 21
161.261914
 31
0.0
  0
LINE
  5
18A
330
185
100
AcDbEntity
  8
1
 62
     4
100
AcDbLine
 10
578.030562
 20
246.986914
 30
0.0
 11
578.387828
 21
244.986915
 31
0.0
  0
LINE
  5
18B
330
185
100
AcDbEntity
  8
1
 62
     4
100
AcDbLine
 10
578.030562
 20
246.986914
 30
0.0
 11
577.673297
 21
244.986913
 31
0.0
  0
LINE
  5
18C
330
185
100
AcDbEntity
  8
1
 62
     4
100
AcDbLine
 10
578.030562
 20
161.261914
 30
0.0
 11
577.673297
 21
163.261913
 31
0.0
  0
LINE
  5
18D
330
185
100
AcDbEntity
  8
1
 62
     4
100
AcDbLine
 10
578.030562
 20
161.261914
 30
0.0
 11
578.387828
 21
163.261915
 31
0.0
  0
ENDBLK
  5
18F
330
185
100
AcDbEntity
  8
0
100
AcDbBlockEnd
  0
BLOCK
  5
19A
330
191
100
AcDbEntity
  8
0
100
AcDbBlockBegin
  2
dim3
 70
     0
 10
0.0
 20
0.0
 30
0.0
  3
dim3
  1

  0
MTEXT
  5
192
330
191
100
AcDbEntity
  8
1
  6
Continuous
 62
     4
100
AcDbMText
 10
567.033693
 20
197.274414
 30
0.0
 40
5.0
 41
0.0
 71
     7
 72
     5
  1
\W00.979;83.5\P
  7
DEFAULT
 11
6.123031769111886E-17
 21
1.0
 31
0.0
 73
     2
 44
0.722892
  0
LINE
  5
193
330
191
100
AcDbEntity
  8
1
 62
     4
100
AcDbLine
 10
435.474245
 20
245.874414
 30
0.0
 11
568.117026
 21
245.874414
 31
0.0
  0
LINE
  5
194
330
191
100
AcDbEntity
  8
1
 62
     4
100
AcDbLine
 10
435.474245
 20
162.374414
 30
0.0
 11
568.117026
 21
162.374414
 31
0.0
  0
LINE
  5
195
330
191
100
AcDbEntity
  8
1
 62
     4
100
AcDbLine
 10
566.617026
 20
245.874414
 30
0.0
 11
566.617026
 21
162.374414
 31
0.0
  0
LINE
  5
196
330
191
100
AcDbEntity
  8
1
 62
     4
100
AcDbLine
 10
566.617026
 20
245.874414
 30
0.0
 11
566.974292
 21
243.874415
 31
0.0
  0
LINE
  5
197
330
191
100
AcDbEntity
  8
1
 62
     4
100
AcDbLine
 10
566.617026
 20
245.874414
 30
0.0
 11
566.25976
 21
243.874413
 31
0.0
  0
LINE
  5
198
330
191
100
AcDbEntity
  8
1
 62
     4
100
AcDbLine
 10
566.617026
 20
162.374414
 30
0.0
 11
566.25976
 21
164.374413
 31
0.0
  0
LINE
  5
199
330
191
100
AcDbEntity
  8
1
 62
     4
100
AcDbLine
 10
566.617026
 20
162.374414
 30
0.0
 11
566.974292
 21
164.374415
 31
0.0
  0
ENDBLK
  5
19B
330
191
100
AcDbEntity
  8
0
100
AcDbBlockEnd
  0
BLOCK
  5
1A6
330
19D
100
AcDbEntity
  8
0
100
AcDbBlockBegin
  2
dim4
 70
     0
 10
0.0
 20
0.0
 30
0.0
  3
dim4
  1

  0
MTEXT
  5
19E
330
19D
100
AcDbEntity
  8
1
  6
Continuous
 62
     4
100
AcDbMText
 10
447.924245
 20
109.874424
 30
0.0
 40
5.0
 41
0.0
 71
     7
 72
     5
  1
\W00.860;46\P
  7
DEFAULT
 73
     2
 44
0.722892
  0
LINE
  5
19F
330
19D
100
AcDbEntity
  8
1
 62
     4
100
AcDbLine
 10
427.724245
 20
154.624414
 30
0.0
 11
427.724245
 21
108.791091
 31
0.0
  0
LINE
  5
1A0
330
19D
100
AcDbEntity
  8
1
 62
     4
100
AcDbLine
 10
473.724245
 20
154.624414
 30
0.0
 11
473.724245
 21
108.791091
 31
0.0
  0
LINE
  5
1A1
330
19D
100
AcDbEntity
  8
1
 62
     4
100
AcDbLine
 10
427.724245
 20
110.291091
 30
0.0
 11
473.724245
 21
110.291091
 31
0.0
  0
LINE
  5
1A2
330
19D
100
AcDbEntity
  8
1
 62
     4
100
AcDbLine
 10
427.724245
 20
110.291091
 30
0.0
 11
429.724244
 21
110.648357
 31
0.0
  0
LINE
  5
1A3
330
19D
100
AcDbEntity
  8
1
 62
     4
100
AcDbLine
 10
427.724245
 20
110.291091
 30
0.0
 11
429.724247
 21
109.933826
 31
0.0
  0
LINE
  5
1A4
330
19D
100
AcDbEntity
  8
1
 62
     4
100
AcDbLine
 10
473.724245
 20
110.291091
 30
0.0
 11
471.724247
 21
109.933826
 31
0.0
  0
LINE
  5
1A5
330
19D
100
AcDbEntity
  8
1
 62
     4
100
AcDbLine
 10
473.724245
 20
110.291091
 30
0.0
 11
471.724244
 21
110.648357
 31
0.0
  0
ENDBLK
  5
1A7
330
19D
100
AcDbEntity
  8
0
100
AcDbBlockEnd
  0
BLOCK
  5
1B2
330
1A9
100
AcDbEntity
  8
0
100
AcDbBlockBegin
  2
dim5
 70
     0
 10
0.0
 20
0.0
 30
0.0
  3
dim5
  1

  0
MTEXT
  5
1AA
330
1A9
100
AcDbEntity
  8
1
  6
Continuous
 62
     4
100
AcDbMText
 10
443.874245
 20
98.765213
 30
0.0
 40
5.0
 41
0.0
 71
     7
 72
     5
  1
\W00.979;83.5\P
  7
DEFAULT
 73
     2
 44
0.722892
  0
LINE
  5
1AB
330
1A9
100
AcDbEntity
  8
1
 62
     4
100
AcDbLine
 10
408.974245
 20
219.374414
 30
0.0
 11
408.974245
 21
97.68188
 31
0.0
  0
LINE
  5
1AC
330
1A9
100
AcDbEntity
  8
1
 62
     4
100
AcDbLine
 10
492.474245
 20
219.374414
 30
0.0
 11
492.474245
 21
97.68188
 31
0.0
  0
LINE
  5
1AD
330
1A9
100
AcDbEntity
  8
1
 62
     4
100
AcDbLine
 10
408.974245
 20
99.18188
 30
0.0
 11
492.474245
 21
99.18188
 31
0.0
  0
LINE
  5
1AE
330
1A9
100
AcDbEntity
  8
1
 62
     4
100
AcDbLine
 10
408.974245
 20
99.18188
 30
0.0
 11
410.974244
 21
99.539145
 31
0.0
  0
LINE
  5
1AF
330
1A9
100
AcDbEntity
  8
1
 62
     4
100
AcDbLine
 10
408.974245
 20
99.18188
 30
0.0
 11
410.974247
 21
98.824614
 31
0.0
  0
LINE
  5
1B0
330
1A9
100
AcDbEntity
  8
1
 62
     4
100
AcDbLine
 10
492.474245
 20
99.18188
 30
0.0
 11
490.474247
 21
98.824614
 31
0.0
  0
LINE
  5
1B1
330
1A9
100
AcDbEntity
  8
1
 62
     4
100
AcDbLine
 10
492.474245
 20
99.18188
 30
0.0
 11
490.474244
 21
99.539145
 31
0.0
  0
ENDBLK
  5
1B3
330
1A9
100
AcDbEntity
  8
0
100
AcDbBlockEnd
  0
BLOCK
  5
1BE
330
1B5
100
AcDbEntity
  8
0
100
AcDbBlockBegin
  2
dim6
 70
     0
 10
0.0
 20
0.0
 30
0.0
  3
dim6
  1

  0
MTEXT
  5
1B6
330
1B5
100
AcDbEntity
  8
1
  6
Continuous
 62
     4
100
AcDbMText
 10
441.849245
 20
86.646074
 30
0.0
 40
5.0
 41
0.0
 71
     7
 72
     5
  1
\W00.950;85.72\P
  7
DEFAULT
 73
     2
 44
0.722892
  0
LINE
  5
1B7
330
1B5
100
AcDbEntity
  8
1
 62
     4
100
AcDbLine
 10
407.861745
 20
153.511914
 30
0.0
 11
407.861745
 21
85.56274
 31
0.0
  0
LINE
  5
1B8
330
1B5
100
AcDbEntity
  8
1
 62
     4
100
AcDbLine
 10
493.586745
 20
153.511914
 30
0.0
 11
493.586745
 21
85.56274
 31
0.0
  0
LINE
  5
1B9
330
1B5
100
AcDbEntity
  8
1
 62
     4
100
AcDbLine
 10
407.861745
 20
87.06274
 30
0.0
 11
493.586745
 21
87.06274
 31
0.0
  0
LINE
  5
1BA
330
1B5
100
AcDbEntity
  8
1
 62
     4
100
AcDbLine
 10
407.861745
 20
87.06274
 30
0.0
 11
409.861744
 21
87.420006
 31
0.0
  0
LINE
  5
1BB
330
1B5
100
AcDbEntity
  8
1
 62
     4
100
AcDbLine
 10
407.861745
 20
87.06274
 30
0.0
 11
409.861747
 21
86.705475
 31
0.0
  0
LINE
  5
1BC
330
1B5
100
AcDbEntity
  8
1
 62
     4
100
AcDbLine
 10
493.586745
 20
87.06274
 30
0.0
 11
491.586747
 21
86.705475
 31
0.0
  0
LINE
  5
1BD
330
1B5
100
AcDbEntity
  8
1
 62
     4
100
AcDbLine
 10
493.586745
 20
87.06274
 30
0.0
 11
491.586744
 21
87.420006
 31
0.0
  0
ENDBLK
  5
1BF
330
1B5
100
AcDbEntity
  8
0
100
AcDbBlockEnd
  0
BLOCK
  5
1C9
330
1C1
100
AcDbEntity
  8
0
100
AcDbBlockBegin
  2
dim7
 70
     0
 10
0.0
 20
0.0
 30
0.0
  3
dim7
  1

  0
MTEXT
  5
1C2
330
1C1
100
AcDbEntity
  8
1
  6
Continuous
 62
     4
100
AcDbMText
 10
545.464856
 20
206.324414
 30
0.0
 40
5.0
 41
0.0
 71
     7
 72
     5
  1
\W00.860;10\P
  7
DEFAULT
 11
6.123031769111886E-17
 21
1.0
 31
0.0
 73
     2
 44
0.722892
  0
LINE
  5
1C3
330
1C1
100
AcDbEntity
  8
1
 62
     4
100
AcDbLine
 10
536.224245
 20
204.124414
 30
0.0
 11
546.548189
 21
204.124414
 31
0.0
  0
LINE
  5
1C4
330
1C1
100
AcDbEntity
  8
1
 62
     4
100
AcDbLine
 10
545.048189
 20
204.124414
 30
0.0
 11
545.048189
 21
214.124414
 31
0.0
  0
LINE
  5
1C5
330
1C1
100
AcDbEntity
  8
1
 62
     4
100
AcDbLine
 10
545.048189
 20
204.124414
 30
0.0
 11
544.690924
 21
206.124413
 31
0.0
  0
LINE
  5
1C6
330
1C1
100
AcDbEntity
  8
1
 62
     4
100
AcDbLine
 10
545.048189
 20
204.124414
 30
0.0
 11
545.405455
 21
206.124415
 31
0.0
  0
LINE
  5
1C7
330
1C1
100
AcDbEntity
  8
1
 62
     4
100
AcDbLine
 10
545.048189
 20
214.124414
 30
0.0
 11
545.405455
 21
212.124415
 31
0.0
  0
LINE
  5
1C8
330
1C1
100
AcDbEntity
  8
1
 62
     4
100
AcDbLine
 10
545.048189
 20
214.124414
 30
0.0
 11
544.690924
 21
212.124413
 31
0.0
  0
ENDBLK
  5
1CA
330
1C1
100
AcDbEntity
  8
0
100
AcDbBlockEnd
  0
BLOCK
  5
1D5
330
1CC
100
AcDbEntity
  8
0
100
AcDbBlockBegin
  2
dim8
 70
     0
 10
0.0
 20
0.0
 30
0.0
  3
dim8
  1

  0
MTEXT
  5
1CD
330
1CC
100
AcDbEntity
  8
1
  6
Continuous
 62
     4
100
AcDbMText
 10
51.692658
 20
312.880487
 30
0.0
 40
5.0
 41
0.0
 71
     7
 72
     5
  1
\W01.106;120%%d\P
  7
DEFAULT
 11
0.7841874895681125
 21
0.6205239569951039
 31
0.0
 73
     2
 44
0.722892
  0
LINE
  5
1CE
330
1CC
100
AcDbEntity
  8
1
 62
     4
100
AcDbLine
 10
122.188916
 20
295.555202
 30
0.0
 11
111.669626
 21
345.044572
 31
0.0
  0
LINE
  5
1CF
330
1CC
100
AcDbEntity
  8
1
 62
     4
100
AcDbLine
 10
77.630757
 20
158.419291
 30
0.0
 11
40.031351
 21
124.564634
 31
0.0
  0
ARC
  5
1D0
330
1CC
100
AcDbEntity
  8
1
 62
     4
100
AcDbCircle
 10
139.497564
 20
214.124414
 30
0.0
 40
132.3449916224935
100
AcDbArc
 50
102.0
 51
222.0
  0
LINE
  5
1D1
330
1CC
100
AcDbEntity
  8
1
 62
     4
100
AcDbLine
 10
111.981493
 20
343.57735
 30
0.0
 11
110.102384
 21
342.804964
 31
0.0
  0
LINE
  5
1D2
330
1CC
100
AcDbEntity
  8
1
 62
     4
100
AcDbLine
 10
111.981493
 20
343.57735
 30
0.0
 11
109.951182
 21
343.503314
 31
0.0
  0
LINE
  5
1D3
330
1CC
100
AcDbEntity
  8
1
 62
     4
100
AcDbLine
 10
41.146068
 20
125.56833
 30
0.0
 11
39.547031
 21
126.821611
 31
0.0
  0
LINE
  5
1D4
330
1CC
100
AcDbEntity
  8
1
 62
     4
100
AcDbLine
 10
41.146068
 20
125.56833
 30
0.0
 11
40.079832
 21
127.297718
 31
0.0
  0
ENDBLK
  5
1D6
330
1CC
100
AcDbEntity
  8
0
100
AcDbBlockEnd
  0
BLOCK
  5
1E1
330
1D8
100
AcDbEntity
  8
0
100
AcDbBlockBegin
  2
dim9
 70
     0
 10
0.0
 20
0.0
 30
0.0
  3
dim9
  1

  0
MTEXT
  5
1D9
330
1D8
100
AcDbEntity
  8
1
  6
Continuous
 62
     4
100
AcDbMText
 10
232.932294
 20
308.446591
 30
0.0
 40
5.0
 41
0.0
 71
     7
 72
     5
  1
\W01.106;120%%d\P
  7
DEFAULT
 11
0.6691306063588586
 21
-0.7431448254773941
 31
0.0
 73
     2
 44
0.722892
  0
LINE
  5
1DA
330
1D8
100
AcDbEntity
  8
1
 62
     4
100
AcDbLine
 10
218.673019
 20
188.398749
 30
0.0
 11
267.382385
 21
172.572117
 31
0.0
  0
LINE
  5
1DB
330
1D8
100
AcDbEntity
  8
1
 62
     4
100
AcDbLine
 10
122.188916
 20
295.555202
 30
0.0
 11
111.540499
 21
345.652066
 31
0.0
  0
ARC
  5
1DC
330
1D8
100
AcDbEntity
  8
1
 62
     4
100
AcDbCircle
 10
139.497564
 20
214.124414
 30
0.0
 40
132.9660582309744
100
AcDbArc
 50
342.0
 51
102.0
  0
LINE
  5
1DD
330
1D8
100
AcDbEntity
  8
1
 62
     4
100
AcDbLine
 10
265.9558
 20
173.035642
 30
0.0
 11
266.226484
 21
175.049188
 31
0.0
  0
LINE
  5
1DE
330
1D8
100
AcDbEntity
  8
1
 62
     4
100
AcDbLine
 10
265.9558
 20
173.035642
 30
0.0
 11
266.90687
 21
174.830945
 31
0.0
  0
LINE
  5
1DF
330
1D8
100
AcDbEntity
  8
1
 62
     4
100
AcDbLine
 10
111.852366
 20
344.184845
 30
0.0
 11
113.737245
 21
344.943044
 31
0.0
  0
LINE
  5
1E0
330
1D8
100
AcDbEntity
  8
1
 62
     4
100
AcDbLine
 10
111.852366
 20
344.184845
 30
0.0
 11
113.883177
 21
344.243574
 31
0.0
  0
ENDBLK
  5
1E2
330
1D8
100
AcDbEntity
  8
0
100
AcDbBlockEnd
  0
BLOCK
  5
1ED
330
1E4
100
AcDbEntity
  8
0
100
AcDbBlockBegin
  2
dim10
 70
     0
 10
0.0
 20
0.0
 30
0.0
  3
dim10
  1

  0
MTEXT
  5
1E5
330
1E4
100
AcDbEntity
  8
1
  6
Continuous
 62
     4
100
AcDbMText
 10
220.143621
 20
285.554389
 30
0.0
 40
5.0
 41
0.0
 71
     7
 72
     5
  1
\W01.106;120%%d\P
  7
DEFAULT
 11
0.6087614290087199
 21
-0.7933533402912357
 31
0.0
 73
     2
 44
0.722892
  0
LINE
  5
1E6
330
1E4
100
AcDbEntity
  8
1
 62
     4
100
AcDbLine
 10
220.567993
 20
180.543943
 30
0.0
 11
240.552708
 21
172.266003
 31
0.0
  0
LINE
  5
1E7
330
1E4
100
AcDbEntity
  8
1
 62
     4
100
AcDbLine
 10
128.043891
 20
301.123701
 30
0.0
 11
125.22044
 21
322.569941
 31
0.0
  0
ARC
  5
1E8
330
1E4
100
AcDbEntity
  8
1
 62
     4
100
AcDbCircle
 10
139.497564
 20
214.124414
 30
0.0
 40
107.8812990805601
100
AcDbArc
 50
337.5
 51
97.5
  0
LINE
  5
1E9
330
1E4
100
AcDbEntity
  8
1
 62
     4
100
AcDbLine
 10
239.166888
 20
172.840028
 30
0.0
 11
239.592982
 21
174.826502
 31
0.0
  0
LINE
  5
1EA
330
1E4
100
AcDbEntity
  8
1
 62
     4
100
AcDbLine
 10
239.166888
 20
172.840028
 30
0.0
 11
240.254384
 21
174.556128
 31
0.0
  0
LINE
  5
1EB
330
1E4
100
AcDbEntity
  8
1
 62
     4
100
AcDbLine
 10
125.416229
 20
321.082774
 30
0.0
 11
127.355316
 21
321.689055
 31
0.0
  0
LINE
  5
1EC
330
1E4
100
AcDbEntity
  8
1
 62
     4
100
AcDbLine
 10
125.416229
 20
321.082774
 30
0.0
 11
127.445299
 21
320.980212
 31
0.0
  0
ENDBLK
  5
1EE
330
1E4
100
AcDbEntity
  8
0
100
AcDbBlockEnd
  0
BLOCK
  5
1F9
330
1F0
100
AcDbEntity
  8
0
100
AcDbBlockBegin
  2
dim11
 70
     0
 10
0.0
 20
0.0
 30
0.0
  3
dim11
  1

  0
MTEXT
  5
1F1
330
1F0
100
AcDbEntity
  8
1
  6
Continuous
 62
     4
100
AcDbMText
 10
37.178594
 20
248.307198
 30
0.0
 40
5.0
 41
0.0
 71
     7
 72
     5
  1
\W01.106;120%%d\P
  7
DEFAULT
 11
0.3826834323650902
 21
0.9238795325112865
 31
0.0
 73
     2
 44
0.722892
  0
LINE
  5
1F2
330
1F0
100
AcDbEntity
  8
1
 62
     4
100
AcDbLine
 10
128.043891
 20
301.123701
 30
0.0
 11
125.201258
 21
322.715639
 31
0.0
  0
LINE
  5
1F3
330
1F0
100
AcDbEntity
  8
1
 62
     4
100
AcDbLine
 10
68.095763
 20
159.335886
 30
0.0
 11
52.602958
 21
147.447838
 31
0.0
  0
ARC
  5
1F4
330
1F0
100
AcDbEntity
  8
1
 62
     4
100
AcDbCircle
 10
139.497564
 20
214.124414
 30
0.0
 40
108.0282543022211
100
AcDbArc
 50
97.5
 51
217.5
  0
LINE
  5
1F5
330
1F0
100
AcDbEntity
  8
1
 62
     4
100
AcDbLine
 10
125.397047
 20
321.228472
 30
0.0
 11
123.46366
 21
320.604256
 31
0.0
  0
LINE
  5
1F6
330
1F0
100
AcDbEntity
  8
1
 62
     4
100
AcDbLine
 10
125.397047
 20
321.228472
 30
0.0
 11
123.367114
 21
321.312234
 31
0.0
  0
LINE
  5
1F7
330
1F0
100
AcDbEntity
  8
1
 62
     4
100
AcDbLine
 10
53.792988
 20
148.36098
 30
0.0
 11
52.298381
 21
149.737128
 31
0.0
  0
LINE
  5
1F8
330
1F0
100
AcDbEntity
  8
1
 62
     4
100
AcDbLine
 10
53.792988
 20
148.36098
 30
0.0
 11
52.867262
 21
150.169481
 31
0.0
  0
ENDBLK
  5
1FA
330
1F0
100
AcDbEntity
  8
0
100
AcDbBlockEnd
  0
BLOCK
  5
205
330
1FC
100
AcDbEntity
  8
0
100
AcDbBlockBegin
  2
dim12
 70
     0
 10
0.0
 20
0.0
 30
0.0
  3
dim12
  1

  0
MTEXT
  5
1FD
330
1FC
100
AcDbEntity
  8
1
  6
Continuous
 62
     4
100
AcDbMText
 10
98.054559
 20
299.424839
 30
0.0
 40
5.0
 41
0.0
 71
     7
 72
     5
  1
\W01.307;7.5%%d\P
  7
DEFAULT
 11
0.9314928035869828
 21
0.3637597515746659
 31
0.0
 73
     2
 44
0.722892
  0
LINE
  5
1FE
330
1FC
100
AcDbEntity
  8
1
 62
     4
100
AcDbLine
 10
128.043891
 20
301.123701
 30
0.0
 11
126.908483
 21
309.747978
 31
0.0
  0
ARC
  5
1FF
330
1FC
100
AcDbEntity
  8
1
 62
     4
100
AcDbCircle
 10
139.497564
 20
214.124414
 30
0.0
 40
94.94869563829629
100
AcDbArc
 50
97.5
 51
116.491768
  0
ARC
  5
200
330
1FC
100
AcDbEntity
  8
1
 62
     4
100
AcDbCircle
 10
139.497564
 20
214.124414
 30
0.0
 40
94.94869563829629
100
AcDbArc
 50
90.0
 51
97.5
  0
LINE
  5
201
330
1FC
100
AcDbEntity
  8
1
 62
     4
100
AcDbLine
 10
139.497564
 20
309.07311
 30
0.0
 11
137.499474
 21
308.705318
 31
0.0
  0
LINE
  5
202
330
1FC
100
AcDbEntity
  8
1
 62
     4
100
AcDbLine
 10
139.497564
 20
309.07311
 30
0.0
 11
137.495709
 21
309.419839
 31
0.0
  0
LINE
  5
203
330
1FC
100
AcDbEntity
  8
1
 62
     4
100
AcDbLine
 10
127.104272
 20
308.260811
 30
0.0
 11
129.043741
 21
308.865867
 31
0.0
  0
LINE
  5
204
330
1FC
100
AcDbEntity
  8
1
 62
     4
100
AcDbLine
 10
127.104272
 20
308.260811
 30
0.0
 11
129.133277
 21
308.156968
 31
0.0
  0
ENDBLK
  5
206
330
1FC
100
AcDbEntity
  8
0
100
AcDbBlockEnd
  0
BLOCK
  5
211
330
208
100
AcDbEntity
  8
0
100
AcDbBlockBegin
  2
dim13
 70
     0
 10
0.0
 20
0.0
 30
0.0
  3
dim13
  1

  0
MTEXT
  5
209
330
208
100
AcDbEntity
  8
1
  6
Continuous
 62
     4
100
AcDbMText
 10
121.289152
 20
334.270292
 30
0.0
 40
5.0
 41
0.0
 71
     7
 72
     5
  1
\W01.218;12%%d\P
  7
DEFAULT
 11
0.9945218953682734
 21
0.1045284632676527
 31
0.0
 73
     2
 44
0.722892
  0
LINE
  5
20A
330
208
100
AcDbEntity
  8
1
 62
     4
100
AcDbLine
 10
139.497564
 20
325.124414
 30
0.0
 11
139.497564
 21
337.432085
 31
0.0
  0
LINE
  5
20B
330
208
100
AcDbEntity
  8
1
 62
     4
100
AcDbLine
 10
122.188916
 20
295.555202
 30
0.0
 11
113.860458
 21
334.737516
 31
0.0
  0
ARC
  5
20C
330
208
100
AcDbEntity
  8
1
 62
     4
100
AcDbCircle
 10
139.497564
 20
214.124414
 30
0.0
 40
121.8076705422757
100
AcDbArc
 50
90.0
 51
102.0
  0
LINE
  5
20D
330
208
100
AcDbEntity
  8
1
 62
     4
100
AcDbLine
 10
139.497564
 20
335.932085
 30
0.0
 11
137.499049
 21
335.566613
 31
0.0
  0
LINE
  5
20E
330
208
100
AcDbEntity
  8
1
 62
     4
100
AcDbLine
 10
139.497564
 20
335.932085
 30
0.0
 11
137.496113
 21
336.281138
 31
0.0
  0
LINE
  5
20F
330
208
100
AcDbEntity
  8
1
 62
     4
100
AcDbLine
 10
114.172325
 20
333.270295
 30
0.0
 11
116.057465
 21
334.027845
 31
0.0
  0
LINE
  5
210
330
208
100
AcDbEntity
  8
1
 62
     4
100
AcDbLine
 10
114.172325
 20
333.270295
 30
0.0
 11
116.203157
 21
333.328325
 31
0.0
  0
ENDBLK
  5
212
330
208
100
AcDbEntity
  8
0
100
AcDbBlockEnd
  0
BLOCK
  5
21E
330
214
100
AcDbEntity
  8
0
100
AcDbBlockBegin
  2
dim14
 70
     0
 10
0.0
 20
0.0
 30
0.0
  3
dim14
  1

  0
MTEXT
  5
215
330
214
100
AcDbEntity
  8
1
  6
Continuous
 62
     4
100
AcDbMText
 10
355.780671
 20
281.234508
 30
0.0
 40
2.5
 41
0.0
 71
     7
 72
     5
  1
\W00.626;\H5.00;14-\H2.50;\P
  7
ideas_kanji
 11
0.8501563861399499
 21
-0.5265302641875967
 31
0.0
 73
     1
 44
0.722892
  0
MTEXT
  5
217
330
214
100
AcDbEntity
  8
1
  6
Continuous
 62
     4
100
AcDbMText
 10
372.139584
 20
270.091055
 30
0.0
 40
5.0
 41
0.0
 71
     7
 72
     5
  1
\W01.040;4.5\P
  7
DEFAULT
 11
0.8501563861399499
 21
-0.5265302641875967
 31
0.0
 73
     2
 44
0.722892
  0
MTEXT
  5
218
330
214
100
AcDbEntity
  8
1
  6
Continuous
 62
     4
100
AcDbMText
 10
365.79662
 20
274.019464
 30
0.0
 40
5.0
 41
0.0
 71
     7
 72
     5
  1
\W01.216;%%c\P
  7
DEFAULT
 11
0.8501563861399499
 21
-0.5265302641875967
 31
0.0
 73
     2
 44
0.722892
  0
LINE
  5
219
330
214
100
AcDbEntity
  8
1
 62
     4
100
AcDbLine
 10
354.570157
 20
279.992176
 30
0.0
 11
420.401552
 21
239.220593
 31
0.0
  0
LINE
  5
21A
330
214
100
AcDbEntity
  8
1
 62
     4
100
AcDbLine
 10
409.774597
 20
245.802221
 30
0.0
 11
411.66302
 21
245.052893
 31
0.0
  0
LINE
  5
21B
330
214
100
AcDbEntity
  8
1
 62
     4
100
AcDbLine
 10
409.774597
 20
245.802221
 30
0.0
 11
411.2868
 21
244.445428
 31
0.0
  0
LINE
  5
21C
330
214
100
AcDbEntity
  8
1
 62
     4
100
AcDbLine
 10
405.948894
 20
248.171607
 30
0.0
 11
404.060471
 21
248.920935
 31
0.0
  0
LINE
  5
21D
330
214
100
AcDbEntity
  8
1
 62
     4
100
AcDbLine
 10
405.948894
 20
248.171607
 30
0.0
 11
404.436691
 21
249.5284
 31
0.0
  0
ENDBLK
  5
21F
330
214
100
AcDbEntity
  8
0
100
AcDbBlockEnd
  0
BLOCK
  5
227
330
221
100
AcDbEntity
  8
0
100
AcDbBlockBegin
  2
dim15
 70
     0
 10
0.0
 20
0.0
 30
0.0
  3
dim15
  1

  0
MTEXT
  5
222
330
221
100
AcDbEntity
  8
1
  6
Continuous
 62
     4
100
AcDbMText
 10
398.916335
 20
287.238066
 30
0.0
 40
5.0
 41
0.0
 71
     7
 72
     5
  1
\W00.838;74\P
  7
DEFAULT
 11
0.574358888600656
 21
-0.8186036080334727
 31
0.0
 73
     2
 44
0.722892
  0
MTEXT
  5
223
330
221
100
AcDbEntity
  8
1
  6
Continuous
 62
     4
100
AcDbMText
 10
396.877361
 20
290.144109
 30
0.0
 40
5.0
 41
0.0
 71
     7
 72
     5
  1
\W00.820;R\P
  7
DEFAULT
 11
0.574358888600656
 21
-0.8186036080334727
 31
0.0
 73
     2
 44
0.722892
  0
LINE
  5
224
330
221
100
AcDbEntity
  8
1
 62
     4
100
AcDbLine
 10
450.724245
 20
214.124414
 30
0.0
 11
396.644087
 21
291.202029
 31
0.0
  0
LINE
  5
225
330
221
100
AcDbEntity
  8
1
 62
     4
100
AcDbLine
 10
408.221688
 20
274.701081
 30
0.0
 11
409.662864
 21
273.269074
 31
0.0
  0
LINE
  5
226
330
221
100
AcDbEntity
  8
1
 62
     4
100
AcDbLine
 10
408.221688
 20
274.701081
 30
0.0
 11
409.077947
 21
272.858674
 31
0.0
  0
ENDBLK
  5
228
330
221
100
AcDbEntity
  8
0
100
AcDbBlockEnd
  0
BLOCK
  5
230
330
22A
100
AcDbEntity
  8
0
100
AcDbBlockBegin
  2
dim16
 70
     0
 10
0.0
 20
0.0
 30
0.0
  3
dim16
  1

  0
MTEXT
  5
22B
330
22A
100
AcDbEntity
  8
1
  6
Continuous
 62
     4
100
AcDbMText
 10
378.451443
 20
139.516105
 30
0.0
 40
5.0
 41
0.0
 71
     7
 72
     5
  1
\W00.860;80\P
  7
DEFAULT
 11
0.6986509059384201
 21
0.7154627255360163
 31
0.0
 73
     2
 44
0.722892
  0
MTEXT
  5
22C
330
22A
100
AcDbEntity
  8
1
  6
Continuous
 62
     4
100
AcDbMText
 10
375.971232
 20
136.976212
 30
0.0
 40
5.0
 41
0.0
 71
     7
 72
     5
  1
\W00.820;R\P
  7
DEFAULT
 11
0.6986509059384201
 21
0.7154627255360163
 31
0.0
 73
     2
 44
0.722892
  0
LINE
  5
22D
330
22A
100
AcDbEntity
  8
1
 62
     4
100
AcDbLine
 10
450.724245
 20
214.124414
 30
0.0
 11
374.974472
 21
136.551854
 31
0.0
  0
LINE
  5
22E
330
22A
100
AcDbEntity
  8
1
 62
     4
100
AcDbLine
 10
394.832173
 20
156.887396
 30
0.0
 11
395.973864
 21
158.567925
 31
0.0
  0
LINE
  5
22F
330
22A
100
AcDbEntity
  8
1
 62
     4
100
AcDbLine
 10
394.832173
 20
156.887396
 30
0.0
 11
396.485086
 21
158.068719
 31
0.0
  0
ENDBLK
  5
231
330
22A
100
AcDbEntity
  8
0
100
AcDbBlockEnd
  0
BLOCK
  5
23C
330
233
100
AcDbEntity
  8
0
100
AcDbBlockBegin
  2
dim17
 70
     0
 10
0.0
 20
0.0
 30
0.0
  3
dim17
  1

  0
MTEXT
  5
234
330
233
100
AcDbEntity
  8
1
  6
Continuous
 62
     4
100
AcDbMText
 10
300.615989
 20
332.530739
 30
0.0
 40
5.0
 41
0.0
 71
     7
 72
     5
  1
\W01.040;4.2\P
  7
DEFAULT
 73
     2
 44
0.722892
  0
LINE
  5
235
330
233
100
AcDbEntity
  8
1
 62
     4
100
AcDbLine
 10
303.340989
 20
288.117552
 30
0.0
 11
303.340989
 21
334.447406
 31
0.0
  0
LINE
  5
236
330
233
100
AcDbEntity
  8
1
 62
     4
100
AcDbLine
 10
307.540989
 20
274.276892
 30
0.0
 11
307.540989
 21
334.447406
 31
0.0
  0
LINE
  5
237
330
233
100
AcDbEntity
  8
1
 62
     4
100
AcDbLine
 10
290.840989
 20
332.947406
 30
0.0
 11
320.040989
 21
332.947406
 31
0.0
  0
LINE
  5
238
330
233
100
AcDbEntity
  8
1
 62
     4
100
AcDbLine
 10
303.340989
 20
332.947406
 30
0.0
 11
301.34099
 21
332.59014
 31
0.0
  0
LINE
  5
239
330
233
100
AcDbEntity
  8
1
 62
     4
100
AcDbLine
 10
303.340989
 20
332.947406
 30
0.0
 11
301.340987
 21
333.304671
 31
0.0
  0
LINE
  5
23A
330
233
100
AcDbEntity
  8
1
 62
     4
100
AcDbLine
 10
307.540989
 20
332.947406
 30
0.0
 11
309.540987
 21
333.304671
 31
0.0
  0
LINE
  5
23B
330
233
100
AcDbEntity
  8
1
 62
     4
100
AcDbLine
 10
307.540989
 20
332.947406
 30
0.0
 11
309.54099
 21
332.59014
 31
0.0
  0
ENDBLK
  5
23D
330
233
100
AcDbEntity
  8
0
100
AcDbBlockEnd
  0
ENDSEC
  0
SECTION
  2
ENTITIES
  0
LINE
  5
42
330
1F
100
AcDbEntity
  8
ORTHO$9
  6
Continuous
 62
     9
100
AcDbLine
 10
4.2
 20
-18.5
 30
-50.0
 11
4.2
 21
-18.5
 31
-25.0
  0
LINE
  5
44
330
1F
100
AcDbEntity
  8
ORTHO$9
  6
Continuous
 62
     9
100
AcDbLine
 10
4.2
 20
18.5
 30
-25.0
 11
4.2
 21
18.5
 31
-50.0
  0
LINE
  5
45
330
1F
100
AcDbEntity
  8
ORTHO$9
  6
Continuous
 62
     9
100
AcDbLine
 10
4.2
 20
-60.152479
 30
0.0
 11
4.2
 21
-60.152479
 31
-33.045423
  0
LINE
  5
46
330
1F
100
AcDbEntity
  8
ORTHO$9
  6
Continuous
 62
     9
100
AcDbLine
 10
4.2
 20
50.152479
 30
-50.911688
 11
4.2
 21
50.152479
 31
-41.713307
  0
LINE
  5
47
330
1F
100
AcDbEntity
  8
ORTHO$9
  6
Continuous
 62
     9
100
AcDbLine
 10
3.5
 20
51.364915
 30
-41.713307
 11
3.5
 21
51.364915
 31
-50.911688
  0
LINE
  5
48
330
1F
100
AcDbEntity
  8
ORTHO$9
  6
Continuous
 62
     9
100
AcDbLine
 10
3.5
 20
-61.364915
 30
-33.045423
 11
3.5
 21
-61.364915
 31
0.0
  0
LINE
  5
49
330
1F
100
AcDbEntity
  8
ORTHO$9
  6
Continuous
 62
     9
100
AcDbLine
 10
3.5
 20
51.364915
 30
-41.713307
 11
1.3
 21
52.635085
 31
-41.713307
  0
LINE
  5
4A
330
1F
100
AcDbEntity
  8
ORTHO$9
  6
Continuous
 62
     9
100
AcDbLine
 10
3.5
 20
54.694815
 30
-27.823191
 11
1.3
 21
55.826924
 31
-28.399093
  0
LINE
  5
4B
330
1F
100
AcDbEntity
  8
ORTHO$9
  6
Continuous
 62
     9
100
AcDbLine
 10
3.5
 20
-61.364915
 30
0.0
 11
1.3
 21
-62.635085
 31
0.0
  0
LINE
  5
4C
330
1F
100
AcDbEntity
  8
ORTHO$9
  6
Continuous
 62
     9
100
AcDbLine
 10
1.3
 20
52.635085
 30
-50.911688
 11
1.3
 21
52.635085
 31
-41.713307
  0
LINE
  5
4D
330
1F
100
AcDbEntity
  8
ORTHO$9
  6
Continuous
 62
     9
100
AcDbLine
 10
3.5
 20
51.364915
 30
-50.911688
 11
1.3
 21
52.635085
 31
-50.911688
  0
LINE
  5
4E
330
1F
100
AcDbEntity
  8
ORTHO$9
  6
Continuous
 62
     9
100
AcDbLine
 10
3.5
 20
47.959491
 30
-58.135682
 11
1.3
 21
48.767782
 31
-59.115478
  0
LINE
  5
4F
330
1F
100
AcDbEntity
  8
ORTHO$9
  6
Continuous
 62
     9
100
AcDbLine
 10
3.5
 20
-61.364915
 30
-33.045423
 11
1.3
 21
-62.635085
 31
-33.045423
  0
LINE
  5
50
330
1F
100
AcDbEntity
  8
ORTHO$9
  6
Continuous
 62
     9
100
AcDbLine
 10
3.5
 20
-52.427767
 30
-54.140555
 11
1.3
 21
-53.311364
 31
-55.053018
  0
LINE
  5
51
330
1F
100
AcDbEntity
  8
ORTHO$9
  6
Continuous
 62
     9
100
AcDbLine
 10
1.3
 20
-62.635085
 30
0.0
 11
1.3
 21
-62.635085
 31
-33.045423
  0
LINE
  5
52
330
1F
100
AcDbEntity
  8
ORTHO$9
  6
Continuous
 62
     9
100
AcDbLine
 10
1.2
 20
-62.80829
 30
-33.045423
 11
1.2
 21
-62.80829
 31
0.0
  0
LINE
  5
53
330
1F
100
AcDbEntity
  8
ORTHO$9
  6
Continuous
 62
     9
100
AcDbLine
 10
1.2
 20
52.80829
 30
-41.713307
 11
1.2
 21
52.80829
 31
-50.911688
  0
LINE
  5
54
330
1F
100
AcDbEntity
  8
ORTHO$9
  6
Continuous
 62
     9
100
AcDbLine
 10
1.2
 20
-80.526706
 30
-29.876512
 11
1.2
 21
-74.189531
 31
-9.777559
  0
LINE
  5
55
330
1F
100
AcDbEntity
  8
ORTHO$9
  6
Continuous
 62
     9
100
AcDbLine
 10
1.2
 20
-74.958505
 30
-36.317915
 11
1.2
 21
-75.105491
 31
-36.337266
  0
LINE
  5
56
330
1F
100
AcDbEntity
  8
ORTHO$9
  6
Continuous
 62
     9
100
AcDbLine
 10
1.2
 20
14.389534
 30
84.67643
 11
1.2
 21
28.627151
 31
69.138798
  0
LINE
  5
57
330
1F
100
AcDbEntity
  8
ORTHO$9
  6
Continuous
 62
     9
100
AcDbLine
 10
1.2
 20
64.98083
 30
-41.608413
 11
1.2
 21
69.021741
 31
-46.87463
  0
LINE
  5
58
330
1F
100
AcDbEntity
  8
ORTHO$9
  6
Continuous
 62
     9
100
AcDbLine
 10
1.2
 20
3.543528
 30
77.079257
 11
1.2
 21
6.08375
 31
83.211896
  0
LINE
  5
59
330
1F
100
AcDbEntity
  8
ORTHO$9
  6
Continuous
 62
     9
100
AcDbLine
 10
1.2
 20
66.137172
 30
-54.799917
 11
1.2
 21
58.824771
 31
-56.421038
  0
LINE
  5
5A
330
1F
100
AcDbEntity
  8
ORTHO$10
  6
Continuous
 62
     9
100
AcDbLine
 10
0.0
 20
3.543528
 30
77.079257
 11
0.0
 21
6.08375
 31
83.211896
  0
LINE
  5
5C
330
1F
100
AcDbEntity
  8
ORTHO$10
  6
Continuous
 62
     9
100
AcDbLine
 10
0.0
 20
-80.526706
 30
-29.876512
 11
0.0
 21
-74.189531
 31
-9.777559
  0
LINE
  5
5D
330
1F
100
AcDbEntity
  8
ORTHO$10
  6
Continuous
 62
     9
100
AcDbLine
 10
0.0
 20
-74.958505
 30
-36.317915
 11
0.0
 21
-75.105491
 31
-36.337266
  0
LINE
  5
5E
330
1F
100
AcDbEntity
  8
ORTHO$10
  6
Continuous
 62
     9
100
AcDbLine
 10
0.0
 20
66.137172
 30
-54.799917
 11
0.0
 21
58.824771
 31
-56.421038
  0
LINE
  5
5F
330
1F
100
AcDbEntity
  8
ORTHO$10
  6
Continuous
 62
     9
100
AcDbLine
 10
0.0
 20
64.98083
 30
-41.608413
 11
0.0
 21
69.021741
 31
-46.87463
  0
LINE
  5
60
330
1F
100
AcDbEntity
  8
ORTHO$10
  6
Continuous
 62
     9
100
AcDbLine
 10
0.0
 20
-62.80829
 30
0.0
 11
0.0
 21
-62.80829
 31
-33.045423
  0
LINE
  5
61
330
1F
100
AcDbEntity
  8
ORTHO$10
  6
Continuous
 62
     9
100
AcDbLine
 10
0.0
 20
52.80829
 30
-50.911688
 11
0.0
 21
52.80829
 31
-41.713307
  0
LINE
  5
62
330
1F
100
AcDbEntity
  8
ORTHO$10
  6
Continuous
 62
     9
100
AcDbLine
 10
0.0
 20
14.389534
 30
84.67643
 11
0.0
 21
28.627151
 31
69.138798
  0
LINE
  5
63
330
1F
100
AcDbEntity
  8
ORTHO$10
  6
Continuous
 62
     9
100
AcDbLine
 10
0.7
 20
-61.595855
 30
-33.045423
 11
0.7
 21
-61.595855
 31
0.0
  0
LINE
  5
64
330
1F
100
AcDbEntity
  8
ORTHO$10
  6
Continuous
 62
     9
100
AcDbLine
 10
0.7
 20
51.595855
 30
-41.713307
 11
0.7
 21
51.595855
 31
-50.911688
  0
LINE
  5
65
330
1F
100
AcDbEntity
  8
ORTHO$10
  6
Continuous
 62
     9
100
AcDbLine
 10
2.9
 20
-60.325684
 30
0.0
 11
2.9
 21
-60.325684
 31
-33.045423
  0
LINE
  5
66
330
1F
100
AcDbEntity
  8
ORTHO$10
  6
Continuous
 62
     9
100
AcDbLine
 10
2.9
 20
-60.325684
 30
0.0
 11
0.7
 21
-61.595855
 31
0.0
  0
LINE
  5
67
330
1F
100
AcDbEntity
  8
ORTHO$10
  6
Continuous
 62
     9
100
AcDbLine
 10
2.9
 20
-60.325684
 30
-33.045423
 11
0.7
 21
-61.595855
 31
-33.045423
  0
LINE
  5
68
330
1F
100
AcDbEntity
  8
ORTHO$10
  6
Continuous
 62
     9
100
AcDbLine
 10
2.9
 20
53.768545
 30
-27.351998
 11
0.7
 21
54.900653
 31
-27.9279
  0
LINE
  5
69
330
1F
100
AcDbEntity
  8
ORTHO$10
  6
Continuous
 62
     9
100
AcDbLine
 10
2.9
 20
50.325684
 30
-41.713307
 11
0.7
 21
51.595855
 31
-41.713307
  0
LINE
  5
6A
330
1F
100
AcDbEntity
  8
ORTHO$10
  6
Continuous
 62
     9
100
AcDbLine
 10
2.9
 20
50.325684
 30
-50.911688
 11
2.9
 21
50.325684
 31
-41.713307
  0
LINE
  5
6B
330
1F
100
AcDbEntity
  8
ORTHO$10
  6
Continuous
 62
     9
100
AcDbLine
 10
2.9
 20
50.325684
 30
-50.911688
 11
0.7
 21
51.595855
 31
-50.911688
  0
LINE
  5
6C
330
1F
100
AcDbEntity
  8
ORTHO$10
  6
Continuous
 62
     9
100
AcDbLine
 10
2.9
 20
-51.704824
 30
-53.393993
 11
0.7
 21
-52.588421
 31
-54.306457
  0
LINE
  5
6D
330
1F
100
AcDbEntity
  8
ORTHO$10
  6
Continuous
 62
     9
100
AcDbLine
 10
2.9
 20
47.298163
 30
-57.334031
 11
0.7
 21
48.106453
 31
-58.313827
  0
LINE
  5
6E
330
1F
100
AcDbEntity
  8
ORTHO$10
  6
Continuous
 62
     9
100
AcDbLine
 10
3.0
 20
-60.152479
 30
-33.045423
 11
3.0
 21
-60.152479
 31
0.0
  0
LINE
  5
6F
330
1F
100
AcDbEntity
  8
ORTHO$10
  6
Continuous
 62
     9
100
AcDbLine
 10
3.0
 20
50.152479
 30
-41.713307
 11
3.0
 21
50.152479
 31
-50.911688
  0
LINE
  5
70
330
1F
100
AcDbEntity
  8
ORTHO$10
  6
Continuous
 62
     9
100
AcDbLine
 10
3.0
 20
18.5
 30
-25.0
 11
3.0
 21
18.5
 31
-50.0
  0
LINE
  5
71
330
1F
100
AcDbEntity
  8
ORTHO$10
  6
Continuous
 62
     9
100
AcDbLine
 10
3.0
 20
-18.5
 30
-50.0
 11
3.0
 21
-18.5
 31
-25.0
  0
LINE
  5
72
330
1F
100
AcDbEntity
  8
TOP$8
  6
Continuous
 62
     9
100
AcDbLine
 10
1.2
 20
-80.526706
 30
-29.876512
 11
0.0
 21
-80.526706
 31
-29.876512
  0
LINE
  5
74
330
1F
100
AcDbEntity
  8
TOP$8
  6
Continuous
 62
     9
100
AcDbLine
 10
1.2
 20
-74.189531
 30
-9.777559
 11
0.0
 21
-74.189531
 31
-9.777559
  0
LINE
  5
75
330
1F
100
AcDbEntity
  8
TOP$8
  6
Continuous
 62
     9
100
AcDbLine
 10
0.0
 20
-80.526706
 30
-29.876512
 11
0.0
 21
-74.189531
 31
-9.777559
  0
LINE
  5
76
330
1F
100
AcDbEntity
  8
TOP$8
  6
Continuous
 62
     9
100
AcDbLine
 10
1.2
 20
-80.526706
 30
-29.876512
 11
1.2
 21
-74.189531
 31
-9.777559
  0
LINE
  5
77
330
1F
100
AcDbEntity
  8
TOP$8
  6
Continuous
 62
     9
100
AcDbLine
 10
1.2
 20
-69.93494
 30
-38.84719
 11
0.0
 21
-69.93494
 31
-38.84719
  0
LINE
  5
78
330
1F
100
AcDbEntity
  8
TOP$8
  6
Continuous
 62
     9
100
AcDbLine
 10
0.0
 20
-73.759236
 30
-5.964489
 11
1.2
 21
-73.759236
 31
-5.964489
  0
LINE
  5
79
330
1F
100
AcDbEntity
  8
TOP$8
  6
Continuous
 62
     9
100
AcDbLine
 10
1.2
 20
-1.007777
 30
73.993137
 11
0.0
 21
-1.007777
 31
73.993137
  0
LINE
  5
7A
330
1F
100
AcDbEntity
  8
TOP$8
  6
Continuous
 62
     9
100
AcDbLine
 10
1.3
 20
-62.635085
 30
0.0
 11
1.3
 21
-62.635085
 31
-33.045423
  0
LINE
  5
7B
330
1F
100
AcDbEntity
  8
TOP$8
  6
Continuous
 62
     9
100
AcDbLine
 10
3.5
 20
-61.364915
 30
0.0
 11
1.3
 21
-62.635085
 31
0.0
  0
LINE
  5
7C
330
1F
100
AcDbEntity
  8
TOP$8
  6
Continuous
 62
     9
100
AcDbLine
 10
3.5
 20
-61.364915
 30
-33.045423
 11
1.3
 21
-62.635085
 31
-33.045423
  0
LINE
  5
7D
330
1F
100
AcDbEntity
  8
TOP$8
  6
Continuous
 62
     9
100
AcDbLine
 10
3.5
 20
-52.427767
 30
-54.140555
 11
1.3
 21
-53.311364
 31
-55.053018
  0
LINE
  5
7E
330
1F
100
AcDbEntity
  8
TOP$8
  6
Continuous
 62
     9
100
AcDbLine
 10
3.5
 20
-61.364915
 30
-33.045423
 11
3.5
 21
-61.364915
 31
0.0
  0
LINE
  5
7F
330
1F
100
AcDbEntity
  8
TOP$8
  6
Continuous
 62
     9
100
AcDbLine
 10
4.2
 20
-60.152479
 30
0.0
 11
4.2
 21
-60.152479
 31
-33.045423
  0
LINE
  5
80
330
1F
100
AcDbEntity
  8
TOP$8
  6
Continuous
 62
     9
100
AcDbLine
 10
0.0
 20
3.543528
 30
77.079257
 11
1.2
 21
3.543528
 31
77.079257
  0
LINE
  5
81
330
1F
100
AcDbEntity
  8
TOP$8
  6
Continuous
 62
     9
100
AcDbLine
 10
1.2
 20
6.08375
 30
83.211896
 11
0.0
 21
6.08375
 31
83.211896
  0
LINE
  5
82
330
1F
100
AcDbEntity
  8
TOP$8
  6
Continuous
 62
     9
100
AcDbLine
 10
0.0
 20
3.543528
 30
77.079257
 11
0.0
 21
6.08375
 31
83.211896
  0
LINE
  5
83
330
1F
100
AcDbEntity
  8
TOP$8
  6
Continuous
 62
     9
100
AcDbLine
 10
1.2
 20
3.543528
 30
77.079257
 11
1.2
 21
6.08375
 31
83.211896
  0
LINE
  5
84
330
1F
100
AcDbEntity
  8
TOP$8
  6
Continuous
 62
     9
100
AcDbLine
 10
0.0
 20
-75.758122
 30
-36.380041
 11
1.2
 21
-75.758122
 31
-36.380041
  0
LINE
  5
85
330
1F
100
AcDbEntity
  8
TOP$8
  6
Continuous
 62
     9
100
AcDbLine
 10
1.2
 20
-75.758122
 30
-33.915041
 11
2.17
 21
-75.758122
 31
-33.915041
  0
LINE
  5
86
330
1F
100
AcDbEntity
  8
TOP$8
  6
Continuous
 62
     9
100
AcDbLine
 10
2.17
 20
-75.758122
 30
-28.845041
 11
1.2
 21
-75.758122
 31
-28.845041
  0
LINE
  5
87
330
1F
100
AcDbEntity
  8
TOP$8
  6
Continuous
 62
     9
100
AcDbLine
 10
1.2
 20
-73.70688
 30
-26.483817
 11
2.17
 21
-73.70688
 31
-26.483817
  0
LINE
  5
88
330
1F
100
AcDbEntity
  8
TOP$8
  6
Continuous
 62
     9
100
AcDbLine
 10
2.17
 20
-73.70688
 30
-21.413817
 11
1.2
 21
-73.70688
 31
-21.413817
  0
LINE
  5
89
330
1F
100
AcDbEntity
  8
TOP$8
  6
Continuous
 62
     9
100
AcDbLine
 10
0.0
 20
0.0
 30
-80.0
 11
1.2
 21
0.0
 31
-80.0
  0
LINE
  5
8A
330
1F
100
AcDbEntity
  8
TOP$8
  6
Continuous
 62
     9
100
AcDbLine
 10
3.5
 20
0.0
 30
61.364915
 11
1.3
 21
0.0
 31
62.635085
  0
LINE
  5
8B
330
1F
100
AcDbEntity
  8
TOP$8
  6
Continuous
 62
     9
100
AcDbLine
 10
1.3
 20
0.0
 30
-76.635085
 11
3.5
 21
0.0
 31
-75.364915
  0
LINE
  5
8C
330
1F
100
AcDbEntity
  8
TOP$8
  6
Continuous
 62
     9
100
AcDbLine
 10
1.2
 20
10.703148
 30
86.298479
 11
0.0
 21
10.703148
 31
86.298479
  0
LINE
  5
8D
330
1F
100
AcDbEntity
  8
TOP$8
  6
Continuous
 62
     9
100
AcDbLine
 10
1.2
 20
10.703148
 30
78.763479
 11
2.17
 21
10.703148
 31
78.763479
  0
LINE
  5
8E
330
1F
100
AcDbEntity
  8
TOP$8
  6
Continuous
 62
     9
100
AcDbLine
 10
2.17
 20
10.703148
 30
83.833479
 11
1.2
 21
10.703148
 31
83.833479
  0
LINE
  5
8F
330
1F
100
AcDbEntity
  8
TOP$8
  6
Continuous
 62
     9
100
AcDbLine
 10
1.2
 20
16.113156
 30
73.271439
 11
2.17
 21
16.113156
 31
73.271439
  0
LINE
  5
90
330
1F
100
AcDbEntity
  8
TOP$8
  6
Continuous
 62
     9
100
AcDbLine
 10
2.17
 20
16.113156
 30
78.341439
 11
1.2
 21
16.113156
 31
78.341439
  0
ARC
  5
91
330
1F
100
AcDbEntity
  8
TOP$8
  6
Continuous
 62
     9
100
AcDbCircle
 10
0.0
 20
0.0
 30
1.3
 40
62.63508529610861
210
1.0
220
0.0
230
0.0
100
AcDbArc
 50
333.037611
 51
180.0
  0
ARC
  5
92
330
1F
100
AcDbEntity
  8
TOP$8
  6
Continuous
 62
     9
100
AcDbCircle
 10
0.0
 20
0.0
 30
-3.5
 40
61.36491470389143
210
-1.0
220
0.0
230
0.0
100
AcDbArc
 50
0.0
 51
206.962389
  0
ARC
  5
93
330
1F
100
AcDbEntity
  8
TOP$8
  6
Continuous
 62
     9
100
AcDbCircle
 10
0.0
 20
0.0
 30
4.2
 40
60.15247913859321
210
1.0
220
0.0
230
0.0
100
AcDbArc
 50
333.037611
 51
180.0
  0
ARC
  5
94
330
1F
100
AcDbEntity
  8
TOP$8
  6
Continuous
 62
     9
100
AcDbCircle
 10
0.0
 20
0.0
 30
0.0
 40
80.0
210
1.0
220
0.0
230
0.0
100
AcDbArc
 50
209.051126
 51
312.660855
  0
ARC
  5
95
330
1F
100
AcDbEntity
  8
TOP$8
  6
Continuous
 62
     9
100
AcDbCircle
 10
0.0
 20
0.0
 30
1.2
 40
80.0
210
1.0
220
0.0
230
0.0
100
AcDbArc
 50
209.051126
 51
312.660855
  0
ARC
  5
96
330
1F
100
AcDbEntity
  8
TOP$8
  6
Continuous
 62
     9
100
AcDbCircle
 10
0.0
 20
0.0
 30
1.3
 40
76.63508529610857
210
1.0
220
0.0
230
0.0
100
AcDbArc
 50
225.92079
 51
309.521196
  0
ARC
  5
97
330
1F
100
AcDbEntity
  8
TOP$8
  6
Continuous
 62
     9
100
AcDbCircle
 10
0.0
 20
0.0
 30
-3.5
 40
75.36491470389142
210
-1.0
220
0.0
230
0.0
100
AcDbArc
 50
230.478804
 51
314.07921
  0
ARC
  5
98
330
1F
100
AcDbEntity
  8
TOP$8
  6
Continuous
 62
     9
100
AcDbCircle
 10
0.0
 20
0.0
 30
4.2
 40
74.15247913859321
210
1.0
220
0.0
230
0.0
100
AcDbArc
 50
225.92079
 51
309.521196
  0
CIRCLE
  5
99
330
1F
100
AcDbEntity
  8
TOP$8
  6
Continuous
 62
     9
100
AcDbCircle
 10
16.113156
 20
75.806439
 30
2.17
 40
2.534999999999997
210
1.0
220
0.0
230
0.0
  0
ARC
  5
9A
330
1F
100
AcDbEntity
  8
TOP$8
  6
Continuous
 62
     9
100
AcDbCircle
 10
-10.703148
 20
81.298479
 30
0.0
 40
4.999999999999995
210
-1.0
220
0.0
230
0.0
100
AcDbArc
 50
22.5
 51
137.5
  0
ARC
  5
9B
330
1F
100
AcDbEntity
  8
TOP$8
  6
Continuous
 62
     9
100
AcDbCircle
 10
-10.703148
 20
81.298479
 30
-1.2
 40
4.999999999999995
210
-1.0
220
0.0
230
0.0
100
AcDbArc
 50
22.5
 51
137.5
  0
CIRCLE
  5
9C
330
1F
100
AcDbEntity
  8
TOP$8
  6
Continuous
 62
     9
100
AcDbCircle
 10
10.703148
 20
81.298479
 30
2.17
 40
2.534999999999997
210
1.0
220
0.0
230
0.0
  0
ARC
  5
9D
330
1F
100
AcDbEntity
  8
ORTHO$9
  6
Continuous
 62
     9
100
AcDbCircle
 10
0.0
 20
-50.0
 30
-4.2
 40
18.5
210
-1.0
220
0.0
230
0.0
100
AcDbArc
 50
180.0
 51
0.0
  0
ARC
  5
9E
330
1F
100
AcDbEntity
  8
ORTHO$9
  6
Continuous
 62
     9
100
AcDbCircle
 10
0.0
 20
-25.0
 30
-4.2
 40
18.5
210
-1.0
220
0.0
230
0.0
100
AcDbArc
 50
0.0
 51
180.0
  0
ARC
  5
9F
330
1F
100
AcDbEntity
  8
ORTHO$9
  6
Continuous
 62
     9
100
AcDbCircle
 10
0.0
 20
0.0
 30
4.2
 40
60.15247913859321
210
1.0
220
0.0
230
0.0
100
AcDbArc
 50
333.037611
 51
180.0
  0
ARC
  5
A0
330
1F
100
AcDbEntity
  8
ORTHO$9
  6
Continuous
 62
     9
100
AcDbCircle
 10
-82.0
 20
-41.713307
 30
-4.2
 40
31.8475208614068
210
-1.0
220
0.0
230
0.0
100
AcDbArc
 50
0.0
 51
26.962389
  0
ARC
  5
A1
330
1F
100
AcDbEntity
  8
ORTHO$9
  6
Continuous
 62
     9
100
AcDbCircle
 10
42.0
 20
-50.911688
 30
4.2
 40
8.152479138593197
210
1.0
220
0.0
230
0.0
100
AcDbArc
 50
309.521196
 51
360.0
  0
ARC
  5
A2
330
1F
100
AcDbEntity
  8
ORTHO$9
  6
Continuous
 62
     9
100
AcDbCircle
 10
0.0
 20
0.0
 30
4.2
 40
74.15247913859321
210
1.0
220
0.0
230
0.0
100
AcDbArc
 50
225.92079
 51
309.521196
  0
ARC
  5
A3
330
1F
100
AcDbEntity
  8
ORTHO$9
  6
Continuous
 62
     9
100
AcDbCircle
 10
-32.0
 20
-33.045423
 30
4.2
 40
28.15247913859319
210
1.0
220
0.0
230
0.0
100
AcDbArc
 50
180.0
 51
225.92079
  0
CIRCLE
  5
A4
330
1F
100
AcDbEntity
  8
ORTHO$9
  6
Continuous
 62
     9
100
AcDbCircle
 10
-41.75
 20
-33.0
 30
-4.2
 40
2.25
210
-1.0
220
0.0
230
0.0
  0
CIRCLE
  5
A5
330
1F
100
AcDbEntity
  8
ORTHO$9
  6
Continuous
 62
     9
100
AcDbCircle
 10
41.75
 20
13.0
 30
-4.2
 40
2.25
210
-1.0
220
0.0
230
0.0
  0
CIRCLE
  5
A6
330
1F
100
AcDbEntity
  8
ORTHO$9
  6
Continuous
 62
     9
100
AcDbCircle
 10
42.8625
 20
-52.8625
 30
-4.2
 40
2.25
210
-1.0
220
0.0
230
0.0
  0
CIRCLE
  5
A7
330
1F
100
AcDbEntity
  8
ORTHO$9
  6
Continuous
 62
     9
100
AcDbCircle
 10
-42.8625
 20
-52.8625
 30
-4.2
 40
2.25
210
-1.0
220
0.0
230
0.0
  0
CIRCLE
  5
A8
330
1F
100
AcDbEntity
  8
ORTHO$9
  6
Continuous
 62
     9
100
AcDbCircle
 10
41.75
 20
-10.0
 30
-4.2
 40
2.25
210
-1.0
220
0.0
230
0.0
  0
CIRCLE
  5
A9
330
1F
100
AcDbEntity
  8
ORTHO$9
  6
Continuous
 62
     9
100
AcDbCircle
 10
-41.75
 20
13.0
 30
-4.2
 40
2.25
210
-1.0
220
0.0
230
0.0
  0
CIRCLE
  5
AA
330
1F
100
AcDbEntity
  8
ORTHO$9
  6
Continuous
 62
     9
100
AcDbCircle
 10
-23.0
 20
-51.75
 30
-4.2
 40
2.25
210
-1.0
220
0.0
230
0.0
  0
CIRCLE
  5
AB
330
1F
100
AcDbEntity
  8
ORTHO$9
  6
Continuous
 62
     9
100
AcDbCircle
 10
23.0
 20
31.75
 30
-4.2
 40
2.25
210
-1.0
220
0.0
230
0.0
  0
CIRCLE
  5
AC
330
1F
100
AcDbEntity
  8
ORTHO$9
  6
Continuous
 62
     9
100
AcDbCircle
 10
42.8625
 20
32.8625
 30
-4.2
 40
2.25
210
-1.0
220
0.0
230
0.0
  0
CIRCLE
  5
AD
330
1F
100
AcDbEntity
  8
ORTHO$9
  6
Continuous
 62
     9
100
AcDbCircle
 10
-42.8625
 20
32.8625
 30
-4.2
 40
2.25
210
-1.0
220
0.0
230
0.0
  0
CIRCLE
  5
AE
330
1F
100
AcDbEntity
  8
ORTHO$9
  6
Continuous
 62
     9
100
AcDbCircle
 10
-41.75
 20
-10.0
 30
-4.2
 40
2.25
210
-1.0
220
0.0
230
0.0
  0
CIRCLE
  5
AF
330
1F
100
AcDbEntity
  8
ORTHO$9
  6
Continuous
 62
     9
100
AcDbCircle
 10
23.0
 20
-51.75
 30
-4.2
 40
2.25
210
-1.0
220
0.0
230
0.0
  0
CIRCLE
  5
B0
330
1F
100
AcDbEntity
  8
ORTHO$9
  6
Continuous
 62
     9
100
AcDbCircle
 10
-23.0
 20
31.75
 30
-4.2
 40
2.25
210
-1.0
220
0.0
230
0.0
  0
CIRCLE
  5
B1
330
1F
100
AcDbEntity
  8
ORTHO$9
  6
Continuous
 62
     9
100
AcDbCircle
 10
41.75
 20
-33.0
 30
-4.2
 40
2.25
210
-1.0
220
0.0
230
0.0
  0
ARC
  5
B2
330
1F
100
AcDbEntity
  8
ORTHO$9
  6
Continuous
 62
     9
100
AcDbCircle
 10
-2.8
 20
50.152479
 30
50.911688
 40
1.4
210
0.0
220
0.0
230
-1.0
100
AcDbArc
 50
120.0
 51
180.0
  0
ARC
  5
B3
330
1F
100
AcDbEntity
  8
ORTHO$9
  6
Continuous
 62
     9
100
AcDbCircle
 10
-2.8
 20
50.152479
 30
41.713307
 40
1.4
210
0.0
220
0.0
230
-1.0
100
AcDbArc
 50
120.0
 51
180.0
  0
ARC
  5
B4
330
1F
100
AcDbEntity
  8
ORTHO$9
  6
Continuous
 62
     9
100
AcDbCircle
 10
-42.0
 20
-50.911688
 30
-3.5
 40
9.36491470389141
210
-1.0
220
0.0
230
0.0
100
AcDbArc
 50
180.0
 51
230.478804
  0
ARC
  5
B5
330
1F
100
AcDbEntity
  8
ORTHO$9
  6
Continuous
 62
     9
100
AcDbCircle
 10
2.8
 20
-74.152479
 30
0.0
 40
1.4
210
1.243208542335919E-12
220
-0.7713892158392824
230
-0.6363636363643489
100
AcDbArc
 50
300.0
 51
0.0
  0
ARC
  5
B6
330
1F
100
AcDbEntity
  8
ORTHO$9
  6
Continuous
 62
     9
100
AcDbCircle
 10
82.0
 20
-41.713307
 30
3.5
 40
30.63508529610858
210
1.0
220
0.0
230
0.0
100
AcDbArc
 50
153.037611
 51
180.0
  0
ARC
  5
B7
330
1F
100
AcDbEntity
  8
ORTHO$9
  6
Continuous
 62
     9
100
AcDbCircle
 10
-2.8
 20
-60.152479
 30
0.0
 40
1.4
210
0.0
220
0.4534055133611764
230
0.8913043478260878
100
AcDbArc
 50
180.0
 51
240.0
  0
ARC
  5
B8
330
1F
100
AcDbEntity
  8
ORTHO$9
  6
Continuous
 62
     9
100
AcDbCircle
 10
0.0
 20
0.0
 30
-3.5
 40
75.36491470389142
210
-1.0
220
0.0
230
0.0
100
AcDbArc
 50
230.478804
 51
314.07921
  0
ARC
  5
B9
330
1F
100
AcDbEntity
  8
ORTHO$9
  6
Continuous
 62
     9
100
AcDbCircle
 10
2.8
 20
-74.152479
 30
0.0
 40
1.4
210
1.126410132047208E-16
220
-0.7183787670373164
230
0.6956521739130448
100
AcDbArc
 50
300.0
 51
0.0
  0
ARC
  5
BA
330
1F
100
AcDbEntity
  8
ORTHO$9
  6
Continuous
 62
     9
100
AcDbCircle
 10
-2.8
 20
-60.152479
 30
0.0
 40
1.4
210
0.0
220
-1.100531396792707E-30
230
-1.0
100
AcDbArc
 50
180.0
 51
240.0
  0
ARC
  5
BB
330
1F
100
AcDbEntity
  8
ORTHO$9
  6
Continuous
 62
     9
100
AcDbCircle
 10
0.0
 20
0.0
 30
-3.5
 40
61.36491470389143
210
-1.0
220
0.0
230
0.0
100
AcDbArc
 50
0.0
 51
206.962389
  0
ARC
  5
BC
330
1F
100
AcDbEntity
  8
ORTHO$9
  6
Continuous
 62
     9
100
AcDbCircle
 10
32.0
 20
-33.045423
 30
-3.5
 40
29.36491470389141
210
-1.0
220
0.0
230
0.0
100
AcDbArc
 50
314.07921
 51
0.0
  0
ARC
  5
BD
330
1F
100
AcDbEntity
  8
ORTHO$9
  6
Continuous
 62
     9
100
AcDbCircle
 10
-2.8
 20
-60.152479
 30
33.045423
 40
1.4
210
0.0
220
0.0
230
-1.0
100
AcDbArc
 50
180.0
 51
240.0
  0
ARC
  5
BE
330
1F
100
AcDbEntity
  8
ORTHO$9
  6
Continuous
 62
     9
100
AcDbCircle
 10
-82.0
 20
-41.713307
 30
-1.3
 40
29.3649147038914
210
-1.0
220
0.0
230
0.0
100
AcDbArc
 50
0.0
 51
26.962389
  0
ARC
  5
BF
330
1F
100
AcDbEntity
  8
ORTHO$9
  6
Continuous
 62
     9
100
AcDbCircle
 10
0.0
 20
0.0
 30
1.3
 40
62.63508529610861
210
1.0
220
0.0
230
0.0
100
AcDbArc
 50
333.037611
 51
180.0
  0
ARC
  5
C0
330
1F
100
AcDbEntity
  8
ORTHO$9
  6
Continuous
 62
     9
100
AcDbCircle
 10
42.0
 20
-50.911688
 30
1.3
 40
10.63508529610858
210
1.0
220
0.0
230
0.0
100
AcDbArc
 50
309.521196
 51
360.0
  0
ARC
  5
C1
330
1F
100
AcDbEntity
  8
ORTHO$9
  6
Continuous
 62
     9
100
AcDbCircle
 10
-32.0
 20
-33.045423
 30
1.3
 40
30.63508529610858
210
1.0
220
0.0
230
0.0
100
AcDbArc
 50
180.0
 51
225.92079
  0
ARC
  5
C2
330
1F
100
AcDbEntity
  8
ORTHO$9
  6
Continuous
 62
     9
100
AcDbCircle
 10
0.0
 20
0.0
 30
1.3
 40
76.63508529610857
210
1.0
220
0.0
230
0.0
100
AcDbArc
 50
225.92079
 51
309.521196
  0
CIRCLE
  5
C3
330
1F
100
AcDbEntity
  8
ORTHO$9
  6
Continuous
 62
     9
100
AcDbCircle
 10
57.593724
 20
-51.857622
 30
2.17
 40
1.621000000000009
210
1.0
220
0.0
230
0.0
  0
CIRCLE
  5
C4
330
1F
100
AcDbEntity
  8
ORTHO$9
  6
Continuous
 62
     9
100
AcDbCircle
 10
57.593724
 20
-51.857622
 30
2.17
 40
2.534999999999997
210
1.0
220
0.0
230
0.0
  0
CIRCLE
  5
C5
330
1F
100
AcDbEntity
  8
ORTHO$9
  6
Continuous
 62
     9
100
AcDbCircle
 10
10.703148
 20
81.298479
 30
2.17
 40
1.620999999999995
210
1.0
220
0.0
230
0.0
  0
CIRCLE
  5
C6
330
1F
100
AcDbEntity
  8
ORTHO$9
  6
Continuous
 62
     9
100
AcDbCircle
 10
10.703148
 20
81.298479
 30
2.17
 40
2.534999999999997
210
1.0
220
0.0
230
0.0
  0
CIRCLE
  5
C7
330
1F
100
AcDbEntity
  8
ORTHO$9
  6
Continuous
 62
     9
100
AcDbCircle
 10
-75.758122
 20
-31.380041
 30
2.17
 40
1.620999999999995
210
1.0
220
0.0
230
0.0
  0
CIRCLE
  5
C8
330
1F
100
AcDbEntity
  8
ORTHO$9
  6
Continuous
 62
     9
100
AcDbCircle
 10
-75.758122
 20
-31.380041
 30
2.17
 40
2.534999999999997
210
1.0
220
0.0
230
0.0
  0
CIRCLE
  5
C9
330
1F
100
AcDbEntity
  8
ORTHO$9
  6
Continuous
 62
     9
100
AcDbCircle
 10
-73.70688
 20
-23.948817
 30
2.17
 40
1.621000000000009
210
1.0
220
0.0
230
0.0
  0
CIRCLE
  5
CA
330
1F
100
AcDbEntity
  8
ORTHO$9
  6
Continuous
 62
     9
100
AcDbCircle
 10
-73.70688
 20
-23.948817
 30
2.17
 40
2.534999999999997
210
1.0
220
0.0
230
0.0
  0
CIRCLE
  5
CB
330
1F
100
AcDbEntity
  8
ORTHO$9
  6
Continuous
 62
     9
100
AcDbCircle
 10
65.054974
 20
-49.918437
 30
2.17
 40
1.620999999999995
210
1.0
220
0.0
230
0.0
  0
CIRCLE
  5
CC
330
1F
100
AcDbEntity
  8
ORTHO$9
  6
Continuous
 62
     9
100
AcDbCircle
 10
65.054974
 20
-49.918437
 30
2.17
 40
2.534999999999997
210
1.0
220
0.0
230
0.0
  0
CIRCLE
  5
CD
330
1F
100
AcDbEntity
  8
ORTHO$9
  6
Continuous
 62
     9
100
AcDbCircle
 10
16.113156
 20
75.806439
 30
2.17
 40
1.621000000000009
210
1.0
220
0.0
230
0.0
  0
CIRCLE
  5
CE
330
1F
100
AcDbEntity
  8
ORTHO$9
  6
Continuous
 62
     9
100
AcDbCircle
 10
16.113156
 20
75.806439
 30
2.17
 40
2.534999999999997
210
1.0
220
0.0
230
0.0
  0
ARC
  5
CF
330
1F
100
AcDbEntity
  8
ORTHO$9
  6
Continuous
 62
     9
100
AcDbCircle
 10
1.4
 20
-62.80829
 30
0.0
 40
0.2
100
AcDbArc
 50
120.0
 51
180.0
  0
ARC
  5
D0
330
1F
100
AcDbEntity
  8
ORTHO$9
  6
Continuous
 62
     9
100
AcDbCircle
 10
0.0
 20
0.0
 30
-1.2
 40
62.80829037686549
210
-1.0
220
0.0
230
0.0
100
AcDbArc
 50
0.0
 51
206.962389
  0
ARC
  5
D1
330
1F
100
AcDbEntity
  8
ORTHO$9
  6
Continuous
 62
     9
100
AcDbCircle
 10
1.4
 20
-62.80829
 30
0.0
 40
0.2
210
0.0
220
-0.4534055133611844
230
-0.8913043478260839
100
AcDbArc
 50
120.0
 51
180.0
  0
ARC
  5
D2
330
1F
100
AcDbEntity
  8
ORTHO$9
  6
Continuous
 62
     9
100
AcDbCircle
 10
82.0
 20
-41.713307
 30
1.2
 40
29.19170962313452
210
1.0
220
0.0
230
0.0
100
AcDbArc
 50
153.037611
 51
180.0
  0
ARC
  5
D3
330
1F
100
AcDbEntity
  8
ORTHO$9
  6
Continuous
 62
     9
100
AcDbCircle
 10
-1.4
 20
52.80829
 30
41.713307
 40
0.2
210
0.0
220
0.0
230
-1.0
100
AcDbArc
 50
300.0
 51
0.0
  0
ARC
  5
D4
330
1F
100
AcDbEntity
  8
ORTHO$9
  6
Continuous
 62
     9
100
AcDbCircle
 10
32.0
 20
-33.045423
 30
-1.2
 40
30.80829037686548
210
-1.0
220
0.0
230
0.0
100
AcDbArc
 50
314.07921
 51
0.0
  0
ARC
  5
D5
330
1F
100
AcDbEntity
  8
ORTHO$9
  6
Continuous
 62
     9
100
AcDbCircle
 10
1.4
 20
-62.80829
 30
-33.045423
 40
0.2
100
AcDbArc
 50
120.0
 51
180.0
  0
ARC
  5
D6
330
1F
100
AcDbEntity
  8
ORTHO$9
  6
Continuous
 62
     9
100
AcDbCircle
 10
-1.4
 20
-76.80829
 30
0.0
 40
0.2
210
0.0
220
0.7183787670373064
230
-0.695652173913055
100
AcDbArc
 50
0.0
 51
60.0
  0
ARC
  5
D7
330
1F
100
AcDbEntity
  8
ORTHO$9
  6
Continuous
 62
     9
100
AcDbCircle
 10
1.4
 20
52.80829
 30
-50.911688
 40
0.2
100
AcDbArc
 50
180.0
 51
240.0
  0
ARC
  5
D8
330
1F
100
AcDbEntity
  8
ORTHO$9
  6
Continuous
 62
     9
100
AcDbCircle
 10
0.0
 20
0.0
 30
-1.2
 40
76.80829037686547
210
-1.0
220
0.0
230
0.0
100
AcDbArc
 50
230.478804
 51
314.07921
  0
ARC
  5
D9
330
1F
100
AcDbEntity
  8
ORTHO$9
  6
Continuous
 62
     9
100
AcDbCircle
 10
-1.4
 20
-76.80829
 30
0.0
 40
0.2
210
0.0
220
0.7713892158397326
230
0.636363636363803
100
AcDbArc
 50
0.0
 51
60.0
  0
ARC
  5
DA
330
1F
100
AcDbEntity
  8
ORTHO$9
  6
Continuous
 62
     9
100
AcDbCircle
 10
-42.0
 20
-50.911688
 30
-1.2
 40
10.80829037686547
210
-1.0
220
0.0
230
0.0
100
AcDbArc
 50
180.0
 51
230.478804
  0
ARC
  5
DB
330
1F
100
AcDbEntity
  8
ORTHO$9
  6
Continuous
 62
     9
100
AcDbCircle
 10
0.0
 20
0.0
 30
1.2
 40
80.0
210
1.0
220
0.0
230
0.0
100
AcDbArc
 50
209.051126
 51
312.660855
  0
ARC
  5
DC
330
1F
100
AcDbEntity
  8
ORTHO$9
  6
Continuous
 62
     9
100
AcDbCircle
 10
1.07587
 20
78.992674
 30
-1.2
 40
5.0
210
-1.0
220
0.0
230
0.0
100
AcDbArc
 50
202.5
 51
269.219687
  0
ARC
  5
DD
330
1F
100
AcDbEntity
  8
ORTHO$9
  6
Continuous
 62
     9
100
AcDbCircle
 10
-35.999924
 20
75.8947
 30
-1.2
 40
10.0
210
-1.0
220
0.0
230
0.0
100
AcDbArc
 50
295.376876
 51
317.5
  0
ARC
  5
DE
330
1F
100
AcDbEntity
  8
ORTHO$9
  6
Continuous
 62
     9
100
AcDbCircle
 10
83.7267
 20
-6.770501
 30
-1.2
 40
10.0
210
-1.0
220
0.0
230
0.0
100
AcDbArc
 50
175.376876
 51
197.5
  0
ARC
  5
DF
330
1F
100
AcDbEntity
  8
ORTHO$9
  6
Continuous
 62
     9
100
AcDbCircle
 10
74.305874
 20
-41.275139
 30
-1.2
 40
5.0
210
-1.0
220
0.0
230
0.0
100
AcDbArc
 50
82.5
 51
150.948874
  0
ARC
  5
E0
330
1F
100
AcDbEntity
  8
ORTHO$9
  6
Continuous
 62
     9
100
AcDbCircle
 10
-60.989167
 20
-66.183998
 30
-1.2
 40
10.0
210
-1.0
220
0.0
230
0.0
100
AcDbArc
 50
47.339145
 51
77.5
  0
ARC
  5
E1
330
1F
100
AcDbEntity
  8
ORTHO$9
  6
Continuous
 62
     9
100
AcDbCircle
 10
75.758122
 20
-31.380041
 30
-1.2
 40
4.999999999999995
210
-1.0
220
0.0
230
0.0
100
AcDbArc
 50
262.5
 51
17.5
  0
ARC
  5
E2
330
1F
100
AcDbEntity
  8
ORTHO$9
  6
Continuous
 62
     9
100
AcDbCircle
 10
0.0
 20
0.0
 30
1.2
 40
74.0
210
1.0
220
0.0
230
0.0
100
AcDbArc
 50
90.780313
 51
184.623124
  0
ARC
  5
E3
330
1F
100
AcDbEntity
  8
ORTHO$9
  6
Continuous
 62
     9
100
AcDbCircle
 10
0.0
 20
0.0
 30
1.2
 40
74.0
210
1.0
220
0.0
230
0.0
100
AcDbArc
 50
330.780313
 51
64.623124
  0
ARC
  5
E4
330
1F
100
AcDbEntity
  8
ORTHO$9
  6
Continuous
 62
     9
100
AcDbCircle
 10
-68.947597
 20
-38.564606
 30
-1.2
 40
5.0
210
-1.0
220
0.0
230
0.0
100
AcDbArc
 50
322.5
 51
29.219687
  0
ARC
  5
E5
330
1F
100
AcDbEntity
  8
ORTHO$9
  6
Continuous
 62
     9
100
AcDbCircle
 10
-10.703148
 20
81.298479
 30
-1.2
 40
4.999999999999995
210
-1.0
220
0.0
230
0.0
100
AcDbArc
 50
22.5
 51
137.5
  0
ARC
  5
E6
330
1F
100
AcDbEntity
  8
ORTHO$9
  6
Continuous
 62
     9
100
AcDbCircle
 10
-65.054974
 20
-49.918437
 30
-1.2
 40
4.999999999999995
210
-1.0
220
0.0
230
0.0
100
AcDbArc
 50
142.5
 51
257.5
  0
ARC
  5
E7
330
1F
100
AcDbEntity
  8
ORTHO$10
  6
Continuous
 62
     9
100
AcDbCircle
 10
0.0
 20
0.0
 30
0.0
 40
62.80829037686549
210
1.0
220
0.0
230
0.0
100
AcDbArc
 50
333.037611
 51
180.0
  0
ARC
  5
E8
330
1F
100
AcDbEntity
  8
ORTHO$10
  6
Continuous
 62
     9
100
AcDbCircle
 10
-1.4
 20
-62.80829
 30
0.0
 40
1.4
210
0.0
220
-1.100531396792707E-30
230
-1.0
100
AcDbArc
 50
0.0
 51
60.0
  0
ARC
  5
E9
330
1F
100
AcDbEntity
  8
ORTHO$10
  6
Continuous
 62
     9
100
AcDbCircle
 10
0.0
 20
0.0
 30
-0.7
 40
61.59585481156727
210
-1.0
220
0.0
230
0.0
100
AcDbArc
 50
0.0
 51
206.962389
  0
ARC
  5
EA
330
1F
100
AcDbEntity
  8
ORTHO$10
  6
Continuous
 62
     9
100
AcDbCircle
 10
-1.4
 20
-62.80829
 30
0.0
 40
1.4
210
0.0
220
0.4534055133611764
230
0.8913043478260878
100
AcDbArc
 50
0.0
 51
60.0
  0
ARC
  5
EB
330
1F
100
AcDbEntity
  8
ORTHO$10
  6
Continuous
 62
     9
100
AcDbCircle
 10
82.0
 20
-41.713307
 30
0.7
 40
30.40414518843273
210
1.0
220
0.0
230
0.0
100
AcDbArc
 50
153.037611
 51
180.0
  0
ARC
  5
EC
330
1F
100
AcDbEntity
  8
ORTHO$10
  6
Continuous
 62
     9
100
AcDbCircle
 10
-1.4
 20
52.80829
 30
41.713307
 40
1.4
210
0.0
220
0.0
230
-1.0
100
AcDbArc
 50
300.0
 51
0.0
  0
ARC
  5
ED
330
1F
100
AcDbEntity
  8
ORTHO$10
  6
Continuous
 62
     9
100
AcDbCircle
 10
-82.0
 20
-41.713307
 30
0.0
 40
29.19170962313452
210
-1.0
220
0.0
230
0.0
100
AcDbArc
 50
0.0
 51
26.962389
  0
ARC
  5
EE
330
1F
100
AcDbEntity
  8
ORTHO$10
  6
Continuous
 62
     9
100
AcDbCircle
 10
0.0
 20
0.0
 30
-0.7
 40
75.59585481156726
210
-1.0
220
0.0
230
0.0
100
AcDbArc
 50
230.478804
 51
314.07921
  0
ARC
  5
EF
330
1F
100
AcDbEntity
  8
ORTHO$10
  6
Continuous
 62
     9
100
AcDbCircle
 10
1.4
 20
-76.80829
 30
0.0
 40
1.4
210
1.126410132047208E-16
220
-0.7183787670373164
230
0.6956521739130448
100
AcDbArc
 50
120.0
 51
180.0
  0
ARC
  5
F0
330
1F
100
AcDbEntity
  8
ORTHO$10
  6
Continuous
 62
     9
100
AcDbCircle
 10
0.0
 20
0.0
 30
0.0
 40
76.80829037686547
210
1.0
220
0.0
230
0.0
100
AcDbArc
 50
225.92079
 51
309.521196
  0
ARC
  5
F1
330
1F
100
AcDbEntity
  8
ORTHO$10
  6
Continuous
 62
     9
100
AcDbCircle
 10
1.4
 20
-76.80829
 30
0.0
 40
1.4
210
1.243208542335919E-12
220
-0.7713892158392824
230
-0.6363636363643489
100
AcDbArc
 50
120.0
 51
180.0
  0
CIRCLE
  5
F2
330
1F
100
AcDbEntity
  8
ORTHO$10
  6
Continuous
 62
     9
100
AcDbCircle
 10
57.593724
 20
-51.857622
 30
0.0
 40
1.620999999999995
210
1.0
220
0.0
230
0.0
  0
CIRCLE
  5
F3
330
1F
100
AcDbEntity
  8
ORTHO$10
  6
Continuous
 62
     9
100
AcDbCircle
 10
-73.70688
 20
-23.948817
 30
0.0
 40
1.620999999999995
210
1.0
220
0.0
230
0.0
  0
CIRCLE
  5
F4
330
1F
100
AcDbEntity
  8
ORTHO$10
  6
Continuous
 62
     9
100
AcDbCircle
 10
-75.758122
 20
-31.380041
 30
0.0
 40
1.620999999999995
210
1.0
220
0.0
230
0.0
  0
CIRCLE
  5
F5
330
1F
100
AcDbEntity
  8
ORTHO$10
  6
Continuous
 62
     9
100
AcDbCircle
 10
10.703148
 20
81.298479
 30
0.0
 40
1.620999999999995
210
1.0
220
0.0
230
0.0
  0
ARC
  5
F6
330
1F
100
AcDbEntity
  8
ORTHO$10
  6
Continuous
 62
     9
100
AcDbCircle
 10
35.999924
 20
75.8947
 30
0.0
 40
10.0
210
1.0
220
0.0
230
0.0
100
AcDbArc
 50
222.5
 51
244.623124
  0
ARC
  5
F7
330
1F
100
AcDbEntity
  8
ORTHO$10
  6
Continuous
 62
     9
100
AcDbCircle
 10
-10.703148
 20
81.298479
 30
0.0
 40
4.999999999999995
210
-1.0
220
0.0
230
0.0
100
AcDbArc
 50
22.5
 51
137.5
  0
ARC
  5
F8
330
1F
100
AcDbEntity
  8
ORTHO$10
  6
Continuous
 62
     9
100
AcDbCircle
 10
-1.07587
 20
78.992674
 30
0.0
 40
5.0
210
1.0
220
0.0
230
0.0
100
AcDbArc
 50
270.780313
 51
337.5
  0
ARC
  5
F9
330
1F
100
AcDbEntity
  8
ORTHO$10
  6
Continuous
 62
     9
100
AcDbCircle
 10
-83.7267
 20
-6.770501
 30
0.0
 40
10.0
210
1.0
220
0.0
230
0.0
100
AcDbArc
 50
342.5
 51
4.623124
  0
ARC
  5
FA
330
1F
100
AcDbEntity
  8
ORTHO$10
  6
Continuous
 62
     9
100
AcDbCircle
 10
75.758122
 20
-31.380041
 30
0.0
 40
4.999999999999995
210
-1.0
220
0.0
230
0.0
100
AcDbArc
 50
262.5
 51
17.5
  0
ARC
  5
FB
330
1F
100
AcDbEntity
  8
ORTHO$10
  6
Continuous
 62
     9
100
AcDbCircle
 10
-74.305874
 20
-41.275139
 30
0.0
 40
5.0
210
1.0
220
0.0
230
0.0
100
AcDbArc
 50
29.051126
 51
97.5
  0
ARC
  5
FC
330
1F
100
AcDbEntity
  8
ORTHO$10
  6
Continuous
 62
     9
100
AcDbCircle
 10
60.989167
 20
-66.183998
 30
0.0
 40
10.0
210
1.0
220
0.0
230
0.0
100
AcDbArc
 50
102.5
 51
132.660855
  0
ARC
  5
FD
330
1F
100
AcDbEntity
  8
ORTHO$10
  6
Continuous
 62
     9
100
AcDbCircle
 10
-65.054974
 20
-49.918437
 30
0.0
 40
4.999999999999995
210
-1.0
220
0.0
230
0.0
100
AcDbArc
 50
142.5
 51
257.5
  0
ARC
  5
FE
330
1F
100
AcDbEntity
  8
ORTHO$10
  6
Continuous
 62
     9
100
AcDbCircle
 10
68.947597
 20
-38.564606
 30
0.0
 40
5.0
210
1.0
220
0.0
230
0.0
100
AcDbArc
 50
150.780313
 51
217.5
  0
ARC
  5
FF
330
1F
100
AcDbEntity
  8
ORTHO$10
  6
Continuous
 62
     9
100
AcDbCircle
 10
0.0
 20
0.0
 30
0.0
 40
74.0
210
1.0
220
0.0
230
0.0
100
AcDbArc
 50
330.780313
 51
64.623124
  0
ARC
  5
100
330
1F
100
AcDbEntity
  8
ORTHO$10
  6
Continuous
 62
     9
100
AcDbCircle
 10
-32.0
 20
-33.045423
 30
0.0
 40
30.80829037686548
210
1.0
220
0.0
230
0.0
100
AcDbArc
 50
180.0
 51
225.92079
  0
ARC
  5
101
330
1F
100
AcDbEntity
  8
ORTHO$10
  6
Continuous
 62
     9
100
AcDbCircle
 10
42.0
 20
-50.911688
 30
0.0
 40
10.80829037686547
210
1.0
220
0.0
230
0.0
100
AcDbArc
 50
309.521196
 51
360.0
  0
ARC
  5
102
330
1F
100
AcDbEntity
  8
ORTHO$10
  6
Continuous
 62
     9
100
AcDbCircle
 10
0.0
 20
0.0
 30
0.0
 40
80.0
210
1.0
220
0.0
230
0.0
100
AcDbArc
 50
209.051126
 51
312.660855
  0
ARC
  5
103
330
1F
100
AcDbEntity
  8
ORTHO$10
  6
Continuous
 62
     9
100
AcDbCircle
 10
0.0
 20
0.0
 30
0.0
 40
74.0
210
1.0
220
0.0
230
0.0
100
AcDbArc
 50
90.780313
 51
184.623124
  0
CIRCLE
  5
104
330
1F
100
AcDbEntity
  8
ORTHO$10
  6
Continuous
 62
     9
100
AcDbCircle
 10
16.113156
 20
75.806439
 30
0.0
 40
1.620999999999995
210
1.0
220
0.0
230
0.0
  0
CIRCLE
  5
105
330
1F
100
AcDbEntity
  8
ORTHO$10
  6
Continuous
 62
     9
100
AcDbCircle
 10
65.054974
 20
-49.918437
 30
0.0
 40
1.620999999999995
210
1.0
220
0.0
230
0.0
  0
ARC
  5
106
330
1F
100
AcDbEntity
  8
ORTHO$10
  6
Continuous
 62
     9
100
AcDbCircle
 10
-1.4
 20
-62.80829
 30
33.045423
 40
1.4
210
0.0
220
0.0
230
-1.0
100
AcDbArc
 50
0.0
 51
60.0
  0
ARC
  5
107
330
1F
100
AcDbEntity
  8
ORTHO$10
  6
Continuous
 62
     9
100
AcDbCircle
 10
32.0
 20
-33.045423
 30
-0.7
 40
29.59585481156727
210
-1.0
220
0.0
230
0.0
100
AcDbArc
 50
314.07921
 51
0.0
  0
ARC
  5
108
330
1F
100
AcDbEntity
  8
ORTHO$10
  6
Continuous
 62
     9
100
AcDbCircle
 10
-1.4
 20
52.80829
 30
50.911688
 40
1.4
210
0.0
220
0.0
230
-1.0
100
AcDbArc
 50
300.0
 51
0.0
  0
ARC
  5
109
330
1F
100
AcDbEntity
  8
ORTHO$10
  6
Continuous
 62
     9
100
AcDbCircle
 10
-42.0
 20
-50.911688
 30
-0.7
 40
9.595854811567259
210
-1.0
220
0.0
230
0.0
100
AcDbArc
 50
180.0
 51
230.478804
  0
ARC
  5
10A
330
1F
100
AcDbEntity
  8
ORTHO$10
  6
Continuous
 62
     9
100
AcDbCircle
 10
0.0
 20
0.0
 30
2.9
 40
60.32568421935009
210
1.0
220
0.0
230
0.0
100
AcDbArc
 50
333.037611
 51
180.0
  0
ARC
  5
10B
330
1F
100
AcDbEntity
  8
ORTHO$10
  6
Continuous
 62
     9
100
AcDbCircle
 10
-82.0
 20
-41.713307
 30
-2.9
 40
31.67431578064991
210
-1.0
220
0.0
230
0.0
100
AcDbArc
 50
0.0
 51
26.962389
  0
ARC
  5
10C
330
1F
100
AcDbEntity
  8
ORTHO$10
  6
Continuous
 62
     9
100
AcDbCircle
 10
0.0
 20
0.0
 30
2.9
 40
74.32568421935007
210
1.0
220
0.0
230
0.0
100
AcDbArc
 50
225.92079
 51
309.521196
  0
ARC
  5
10D
330
1F
100
AcDbEntity
  8
ORTHO$10
  6
Continuous
 62
     9
100
AcDbCircle
 10
-32.0
 20
-33.045423
 30
2.9
 40
28.32568421935009
210
1.0
220
0.0
230
0.0
100
AcDbArc
 50
180.0
 51
225.92079
  0
ARC
  5
10E
330
1F
100
AcDbEntity
  8
ORTHO$10
  6
Continuous
 62
     9
100
AcDbCircle
 10
42.0
 20
-50.911688
 30
2.9
 40
8.325684219350086
210
1.0
220
0.0
230
0.0
100
AcDbArc
 50
309.521196
 51
360.0
  0
ARC
  5
10F
330
1F
100
AcDbEntity
  8
ORTHO$10
  6
Continuous
 62
     9
100
AcDbCircle
 10
2.8
 20
-74.152479
 30
0.0
 40
0.2
210
1.243208542335919E-12
220
-0.7713892158392824
230
-0.6363636363643489
100
AcDbArc
 50
300.0
 51
0.0
  0
ARC
  5
110
330
1F
100
AcDbEntity
  8
ORTHO$10
  6
Continuous
 62
     9
100
AcDbCircle
 10
0.0
 20
0.0
 30
-3.0
 40
74.15247913859321
210
-1.0
220
0.0
230
0.0
100
AcDbArc
 50
230.478804
 51
314.07921
  0
ARC
  5
111
330
1F
100
AcDbEntity
  8
ORTHO$10
  6
Continuous
 62
     9
100
AcDbCircle
 10
2.8
 20
-74.152479
 30
0.0
 40
0.2
210
1.126410132047208E-16
220
-0.7183787670373164
230
0.6956521739130448
100
AcDbArc
 50
300.0
 51
360.0
  0
ARC
  5
112
330
1F
100
AcDbEntity
  8
ORTHO$10
  6
Continuous
 62
     9
100
AcDbCircle
 10
32.0
 20
-33.045423
 30
-3.0
 40
28.1524791385932
210
-1.0
220
0.0
230
0.0
100
AcDbArc
 50
314.07921
 51
0.0
  0
ARC
  5
113
330
1F
100
AcDbEntity
  8
ORTHO$10
  6
Continuous
 62
     9
100
AcDbCircle
 10
2.8
 20
-60.152479
 30
-33.045423
 40
0.2
100
AcDbArc
 50
300.0
 51
0.0
  0
ARC
  5
114
330
1F
100
AcDbEntity
  8
ORTHO$10
  6
Continuous
 62
     9
100
AcDbCircle
 10
2.8
 20
50.152479
 30
-50.911688
 40
0.2
100
AcDbArc
 50
0.0
 51
60.0
  0
ARC
  5
115
330
1F
100
AcDbEntity
  8
ORTHO$10
  6
Continuous
 62
     9
100
AcDbCircle
 10
-42.0
 20
-50.911688
 30
-3.0
 40
8.152479138593197
210
-1.0
220
0.0
230
0.0
100
AcDbArc
 50
180.0
 51
230.478804
  0
ARC
  5
116
330
1F
100
AcDbEntity
  8
ORTHO$10
  6
Continuous
 62
     9
100
AcDbCircle
 10
0.0
 20
0.0
 30
-3.0
 40
60.15247913859319
210
-1.0
220
0.0
230
0.0
100
AcDbArc
 50
0.0
 51
206.962389
  0
ARC
  5
117
330
1F
100
AcDbEntity
  8
ORTHO$10
  6
Continuous
 62
     9
100
AcDbCircle
 10
-2.8
 20
-60.152479
 30
0.0
 40
0.2
210
0.0
220
0.4534055133611764
230
0.8913043478260878
100
AcDbArc
 50
180.0
 51
240.0
  0
ARC
  5
118
330
1F
100
AcDbEntity
  8
ORTHO$10
  6
Continuous
 62
     9
100
AcDbCircle
 10
-2.8
 20
-60.152479
 30
0.0
 40
0.2
210
0.0
220
0.0
230
-1.0
100
AcDbArc
 50
180.0
 51
240.0
  0
ARC
  5
119
330
1F
100
AcDbEntity
  8
ORTHO$10
  6
Continuous
 62
     9
100
AcDbCircle
 10
2.8
 20
50.152479
 30
-41.713307
 40
0.2
100
AcDbArc
 50
0.0
 51
60.0
  0
ARC
  5
11A
330
1F
100
AcDbEntity
  8
ORTHO$10
  6
Continuous
 62
     9
100
AcDbCircle
 10
82.0
 20
-41.713307
 30
3.0
 40
31.8475208614068
210
1.0
220
0.0
230
0.0
100
AcDbArc
 50
153.037611
 51
180.0
  0
CIRCLE
  5
11B
330
1F
100
AcDbEntity
  8
ORTHO$10
  6
Continuous
 62
     9
100
AcDbCircle
 10
-41.75
 20
-33.0
 30
-3.0
 40
2.25
210
-1.0
220
0.0
230
0.0
  0
CIRCLE
  5
11C
330
1F
100
AcDbEntity
  8
ORTHO$10
  6
Continuous
 62
     9
100
AcDbCircle
 10
41.75
 20
13.0
 30
-3.0
 40
2.25
210
-1.0
220
0.0
230
0.0
  0
CIRCLE
  5
11D
330
1F
100
AcDbEntity
  8
ORTHO$10
  6
Continuous
 62
     9
100
AcDbCircle
 10
42.8625
 20
-52.8625
 30
-3.0
 40
2.25
210
-1.0
220
0.0
230
0.0
  0
CIRCLE
  5
11E
330
1F
100
AcDbEntity
  8
ORTHO$10
  6
Continuous
 62
     9
100
AcDbCircle
 10
-42.8625
 20
-52.8625
 30
-3.0
 40
2.25
210
-1.0
220
0.0
230
0.0
  0
CIRCLE
  5
11F
330
1F
100
AcDbEntity
  8
ORTHO$10
  6
Continuous
 62
     9
100
AcDbCircle
 10
41.75
 20
-10.0
 30
-3.0
 40
2.25
210
-1.0
220
0.0
230
0.0
  0
CIRCLE
  5
120
330
1F
100
AcDbEntity
  8
ORTHO$10
  6
Continuous
 62
     9
100
AcDbCircle
 10
41.75
 20
-33.0
 30
-3.0
 40
2.25
210
-1.0
220
0.0
230
0.0
  0
CIRCLE
  5
121
330
1F
100
AcDbEntity
  8
ORTHO$10
  6
Continuous
 62
     9
100
AcDbCircle
 10
-41.75
 20
13.0
 30
-3.0
 40
2.25
210
-1.0
220
0.0
230
0.0
  0
CIRCLE
  5
122
330
1F
100
AcDbEntity
  8
ORTHO$10
  6
Continuous
 62
     9
100
AcDbCircle
 10
-23.0
 20
-51.75
 30
-3.0
 40
2.25
210
-1.0
220
0.0
230
0.0
  0
CIRCLE
  5
123
330
1F
100
AcDbEntity
  8
ORTHO$10
  6
Continuous
 62
     9
100
AcDbCircle
 10
23.0
 20
31.75
 30
-3.0
 40
2.25
210
-1.0
220
0.0
230
0.0
  0
CIRCLE
  5
124
330
1F
100
AcDbEntity
  8
ORTHO$10
  6
Continuous
 62
     9
100
AcDbCircle
 10
42.8625
 20
32.8625
 30
-3.0
 40
2.25
210
-1.0
220
0.0
230
0.0
  0
CIRCLE
  5
125
330
1F
100
AcDbEntity
  8
ORTHO$10
  6
Continuous
 62
     9
100
AcDbCircle
 10
-42.8625
 20
32.8625
 30
-3.0
 40
2.25
210
-1.0
220
0.0
230
0.0
  0
CIRCLE
  5
126
330
1F
100
AcDbEntity
  8
ORTHO$10
  6
Continuous
 62
     9
100
AcDbCircle
 10
-41.75
 20
-10.0
 30
-3.0
 40
2.25
210
-1.0
220
0.0
230
0.0
  0
CIRCLE
  5
127
330
1F
100
AcDbEntity
  8
ORTHO$10
  6
Continuous
 62
     9
100
AcDbCircle
 10
23.0
 20
-51.75
 30
-3.0
 40
2.25
210
-1.0
220
0.0
230
0.0
  0
CIRCLE
  5
128
330
1F
100
AcDbEntity
  8
ORTHO$10
  6
Continuous
 62
     9
100
AcDbCircle
 10
-23.0
 20
31.75
 30
-3.0
 40
2.25
210
-1.0
220
0.0
230
0.0
  0
ARC
  5
129
330
1F
100
AcDbEntity
  8
ORTHO$10
  6
Continuous
 62
     9
100
AcDbCircle
 10
0.0
 20
-25.0
 30
-3.0
 40
18.5
210
-1.0
220
0.0
230
0.0
100
AcDbArc
 50
0.0
 51
180.0
  0
ARC
  5
12A
330
1F
100
AcDbEntity
  8
ORTHO$10
  6
Continuous
 62
     9
100
AcDbCircle
 10
0.0
 20
-50.0
 30
-3.0
 40
18.5
210
-1.0
220
0.0
230
0.0
100
AcDbArc
 50
180.0
 51
0.0
  0
ARC
  5
12B
330
1F
100
AcDbEntity
  8
TOP$8
  6
Continuous
 62
     9
100
AcDbCircle
 10
75.758122
 20
-31.380041
 30
0.0
 40
4.999999999999995
210
-1.0
220
0.0
230
0.0
100
AcDbArc
 50
262.5
 51
17.5
  0
ARC
  5
12C
330
1F
100
AcDbEntity
  8
TOP$8
  6
Continuous
 62
     9
100
AcDbCircle
 10
75.758122
 20
-31.380041
 30
-1.2
 40
4.999999999999995
210
-1.0
220
0.0
230
0.0
100
AcDbArc
 50
262.5
 51
17.5
  0
CIRCLE
  5
12D
330
1F
100
AcDbEntity
  8
TOP$8
  6
Continuous
 62
     9
100
AcDbCircle
 10
-75.758122
 20
-31.380041
 30
2.17
 40
2.534999999999997
210
1.0
220
0.0
230
0.0
  0
CIRCLE
  5
12E
330
1F
100
AcDbEntity
  8
TOP$8
  6
Continuous
 62
     9
100
AcDbCircle
 10
-73.70688
 20
-23.948817
 30
2.17
 40
2.534999999999997
210
1.0
220
0.0
230
0.0
  0
ARC
  5
12F
330
1F
100
AcDbEntity
  8
TOP$8
  6
Continuous
 62
     9
100
AcDbCircle
 10
-74.305874
 20
-41.275139
 30
0.0
 40
5.0
210
1.0
220
0.0
230
0.0
100
AcDbArc
 50
29.051126
 51
97.5
  0
ARC
  5
130
330
1F
100
AcDbEntity
  8
TOP$8
  6
Continuous
 62
     9
100
AcDbCircle
 10
74.305874
 20
-41.275139
 30
-1.2
 40
5.0
210
-1.0
220
0.0
230
0.0
100
AcDbArc
 50
82.5
 51
150.948874
  0
ARC
  5
131
330
1F
100
AcDbEntity
  8
TOP$8
  6
Continuous
 62
     9
100
AcDbCircle
 10
-83.7267
 20
-6.770501
 30
0.0
 40
10.0
210
1.0
220
0.0
230
0.0
100
AcDbArc
 50
342.5
 51
4.623124
  0
ARC
  5
132
330
1F
100
AcDbEntity
  8
TOP$8
  6
Continuous
 62
     9
100
AcDbCircle
 10
83.7267
 20
-6.770501
 30
-1.2
 40
10.0
210
-1.0
220
0.0
230
0.0
100
AcDbArc
 50
175.376876
 51
197.5
  0
ARC
  5
133
330
1F
100
AcDbEntity
  8
TOP$8
  6
Continuous
 62
     9
100
AcDbCircle
 10
0.0
 20
0.0
 30
0.0
 40
74.0
210
1.0
220
0.0
230
0.0
100
AcDbArc
 50
90.780313
 51
184.623124
  0
ARC
  5
134
330
1F
100
AcDbEntity
  8
TOP$8
  6
Continuous
 62
     9
100
AcDbCircle
 10
0.0
 20
0.0
 30
1.2
 40
74.0
210
1.0
220
0.0
230
0.0
100
AcDbArc
 50
90.780313
 51
184.623124
  0
ARC
  5
135
330
1F
100
AcDbEntity
  8
TOP$8
  6
Continuous
 62
     9
100
AcDbCircle
 10
1.4
 20
-62.80829
 30
0.0
 40
0.2
100
AcDbArc
 50
120.0
 51
180.0
  0
ARC
  5
136
330
1F
100
AcDbEntity
  8
TOP$8
  6
Continuous
 62
     9
100
AcDbCircle
 10
-32.0
 20
-33.045423
 30
1.3
 40
30.63508529610858
210
1.0
220
0.0
230
0.0
100
AcDbArc
 50
180.0
 51
225.92079
  0
ARC
  5
137
330
1F
100
AcDbEntity
  8
TOP$8
  6
Continuous
 62
     9
100
AcDbCircle
 10
-1.4
 20
-76.80829
 30
0.0
 40
0.2
210
0.0
220
0.7183787670373064
230
-0.695652173913055
100
AcDbArc
 50
0.0
 51
60.0
  0
ARC
  5
138
330
1F
100
AcDbEntity
  8
TOP$8
  6
Continuous
 62
     9
100
AcDbCircle
 10
32.0
 20
-33.045423
 30
-3.5
 40
29.36491470389141
210
-1.0
220
0.0
230
0.0
100
AcDbArc
 50
314.07921
 51
0.0
  0
ARC
  5
139
330
1F
100
AcDbEntity
  8
TOP$8
  6
Continuous
 62
     9
100
AcDbCircle
 10
-2.8
 20
-60.152479
 30
0.0
 40
1.4
210
0.0
220
-1.100531396792707E-30
230
-1.0
100
AcDbArc
 50
180.0
 51
240.0
  0
ARC
  5
13A
330
1F
100
AcDbEntity
  8
TOP$8
  6
Continuous
 62
     9
100
AcDbCircle
 10
-2.8
 20
-60.152479
 30
33.045423
 40
1.4
210
0.0
220
0.0
230
-1.0
100
AcDbArc
 50
180.0
 51
240.0
  0
ARC
  5
13B
330
1F
100
AcDbEntity
  8
TOP$8
  6
Continuous
 62
     9
100
AcDbCircle
 10
-32.0
 20
-33.045423
 30
4.2
 40
28.15247913859319
210
1.0
220
0.0
230
0.0
100
AcDbArc
 50
180.0
 51
225.92079
  0
ARC
  5
13C
330
1F
100
AcDbEntity
  8
TOP$8
  6
Continuous
 62
     9
100
AcDbCircle
 10
2.8
 20
-74.152479
 30
0.0
 40
1.4
210
1.126410132047208E-16
220
-0.7183787670373164
230
0.6956521739130448
100
AcDbArc
 50
300.0
 51
0.0
  0
ARC
  5
13D
330
1F
100
AcDbEntity
  8
TOP$8
  6
Continuous
 62
     9
100
AcDbCircle
 10
-1.07587
 20
78.992674
 30
0.0
 40
5.0
210
1.0
220
0.0
230
0.0
100
AcDbArc
 50
270.780313
 51
337.5
  0
ARC
  5
13E
330
1F
100
AcDbEntity
  8
TOP$8
  6
Continuous
 62
     9
100
AcDbCircle
 10
1.07587
 20
78.992674
 30
-1.2
 40
5.0
210
-1.0
220
0.0
230
0.0
100
AcDbArc
 50
202.5
 51
269.219687
  0
ARC
  5
13F
330
1F
100
AcDbEntity
  8
TOP$8
  6
Continuous
 62
     9
100
AcDbCircle
 10
-1.4
 20
62.80829
 30
0.0
 40
0.2
210
0.0
220
1.0
230
0.0
100
AcDbArc
 50
300.0
 51
0.0
  0
ARC
  5
140
330
1F
100
AcDbEntity
  8
TOP$8
  6
Continuous
 62
     9
100
AcDbCircle
 10
2.8
 20
60.152479
 30
0.0
 40
1.4
210
0.0
220
-1.0
230
0.0
100
AcDbArc
 50
0.0
 51
60.0
  0
ARC
  5
141
330
1F
100
AcDbEntity
  8
TOP$8
  6
Continuous
 62
     9
100
AcDbCircle
 10
-1.4
 20
-76.80829
 30
0.0
 40
0.2
210
0.0
220
1.0
230
0.0
100
AcDbArc
 50
0.0
 51
60.0
  0
ARC
  5
142
330
1F
100
AcDbEntity
  8
TOP$8
  6
Continuous
 62
     9
100
AcDbCircle
 10
2.8
 20
-74.152479
 30
0.0
 40
1.4
210
0.0
220
-1.0
230
0.0
100
AcDbArc
 50
300.0
 51
0.0
  0
VIEWPORT
  5
14F
330
14C
100
AcDbEntity
 67
     1
  8
0
100
AcDbViewport
 10
297.0
 20
210.0
 30
0.0
 40
594.0
 41
420.0
 68
     1
 69
     1
 12
297.0
 22
210.0
 13
0.0
 23
0.0
 14
1.0
 24
1.0
 15
1.0
 25
1.0
 16
0.0
 26
0.0
 36
1.0
 17
0.0
 27
0.0
 37
0.0
 42
0.82122
 43
0.0
 44
0.0
 45
420.0
 50
0.0
 51
0.0
 72
   100
331
43
331
5B
331
73
 90
   557152
  1

281
     0
 71
     1
 74
     0
110
0.0
120
0.0
130
0.0
111
1.0
121
0.0
131
0.0
112
0.0
122
1.0
132
0.0
 79
     0
146
0.0
170
     0
  0
LINE
  5
150
330
14C
100
AcDbEntity
 67
     1
  8
1
  6
CENTER
 62
     2
100
AcDbLine
 10
336.724245
 20
214.124414
 30
0.0
 11
551.724245
 21
214.124414
 31
0.0
  0
LINE
  5
151
330
14C
100
AcDbEntity
 67
     1
  8
1
  6
CENTER
 62
     2
100
AcDbLine
 10
450.724245
 20
126.124414
 30
0.0
 11
450.724245
 21
331.124414
 31
0.0
  0
LINE
  5
152
330
14C
100
AcDbEntity
 67
     1
  8
1
  6
CENTER
 62
     2
100
AcDbLine
 10
427.724245
 20
154.624414
 30
0.0
 11
427.724245
 21
253.624414
 31
0.0
  0
LINE
  5
153
330
14C
100
AcDbEntity
 67
     1
  8
1
  6
CENTER
 62
     2
100
AcDbLine
 10
419.974245
 20
245.874414
 30
0.0
 11
435.474245
 21
245.874414
 31
0.0
  0
LINE
  5
154
330
14C
100
AcDbEntity
 67
     1
  8
1
  6
CENTER
 62
     2
100
AcDbLine
 10
419.974245
 20
162.374414
 30
0.0
 11
435.474245
 21
162.374414
 31
0.0
  0
LINE
  5
155
330
14C
100
AcDbEntity
 67
     1
  8
1
  6
CENTER
 62
     2
100
AcDbLine
 10
473.724245
 20
154.624414
 30
0.0
 11
473.724245
 21
253.624414
 31
0.0
  0
LINE
  5
156
330
14C
100
AcDbEntity
 67
     1
  8
1
  6
CENTER
 62
     2
100
AcDbLine
 10
465.974245
 20
245.874414
 30
0.0
 11
481.474245
 21
245.874414
 31
0.0
  0
LINE
  5
157
330
14C
100
AcDbEntity
 67
     1
  8
1
  6
CENTER
 62
     2
100
AcDbLine
 10
465.974245
 20
162.374414
 30
0.0
 11
481.474245
 21
162.374414
 31
0.0
  0
LINE
  5
158
330
14C
100
AcDbEntity
 67
     1
  8
1
  6
CENTER
 62
     2
100
AcDbLine
 10
401.224245
 20
181.124414
 30
0.0
 11
500.224245
 21
181.124414
 31
0.0
  0
LINE
  5
159
330
14C
100
AcDbEntity
 67
     1
  8
1
  6
CENTER
 62
     2
100
AcDbLine
 10
492.474245
 20
173.374414
 30
0.0
 11
492.474245
 21
188.874414
 31
0.0
  0
LINE
  5
15A
330
14C
100
AcDbEntity
 67
     1
  8
1
  6
CENTER
 62
     2
100
AcDbLine
 10
408.974245
 20
173.374414
 30
0.0
 11
408.974245
 21
188.874414
 31
0.0
  0
LINE
  5
15B
330
14C
100
AcDbEntity
 67
     1
  8
1
  6
CENTER
 62
     2
100
AcDbLine
 10
401.224245
 20
227.124414
 30
0.0
 11
500.224245
 21
227.124414
 31
0.0
  0
LINE
  5
15C
330
14C
100
AcDbEntity
 67
     1
  8
1
  6
CENTER
 62
     2
100
AcDbLine
 10
492.474245
 20
219.374414
 30
0.0
 11
492.474245
 21
234.874414
 31
0.0
  0
LINE
  5
15D
330
14C
100
AcDbEntity
 67
     1
  8
1
  6
CENTER
 62
     2
100
AcDbLine
 10
408.974245
 20
219.374414
 30
0.0
 11
408.974245
 21
234.874414
 31
0.0
  0
LINE
  5
15E
330
14C
100
AcDbEntity
 67
     1
  8
1
  6
CENTER
 62
     2
100
AcDbLine
 10
361.224245
 20
204.124414
 30
0.0
 11
536.224245
 21
204.124414
 31
0.0
  0
LINE
  5
15F
330
14C
100
AcDbEntity
 67
     1
  8
1
  6
CENTER
 62
     2
100
AcDbLine
 10
492.474245
 20
196.374414
 30
0.0
 11
492.474245
 21
211.874414
 31
0.0
  0
LINE
  5
160
330
14C
100
AcDbEntity
 67
     1
  8
1
  6
CENTER
 62
     2
100
AcDbLine
 10
408.974245
 20
196.374414
 30
0.0
 11
408.974245
 21
211.874414
 31
0.0
  0
LINE
  5
161
330
14C
100
AcDbEntity
 67
     1
  8
1
  6
CENTER
 62
     2
100
AcDbLine
 10
407.861745
 20
153.511914
 30
0.0
 11
407.861745
 21
254.736914
 31
0.0
  0
LINE
  5
162
330
14C
100
AcDbEntity
 67
     1
  8
1
  6
CENTER
 62
     2
100
AcDbLine
 10
400.111745
 20
246.986914
 30
0.0
 11
415.611745
 21
246.986914
 31
0.0
  0
LINE
  5
163
330
14C
100
AcDbEntity
 67
     1
  8
1
  6
CENTER
 62
     2
100
AcDbLine
 10
400.111745
 20
161.261914
 30
0.0
 11
415.611745
 21
161.261914
 31
0.0
  0
LINE
  5
164
330
14C
100
AcDbEntity
 67
     1
  8
1
  6
CENTER
 62
     2
100
AcDbLine
 10
493.586745
 20
153.511914
 30
0.0
 11
493.586745
 21
254.736914
 31
0.0
  0
LINE
  5
165
330
14C
100
AcDbEntity
 67
     1
  8
1
  6
CENTER
 62
     2
100
AcDbLine
 10
485.836745
 20
246.986914
 30
0.0
 11
501.336745
 21
246.986914
 31
0.0
  0
LINE
  5
166
330
14C
100
AcDbEntity
 67
     1
  8
1
  6
CENTER
 62
     2
100
AcDbLine
 10
485.836745
 20
161.261914
 30
0.0
 11
501.336745
 21
161.261914
 31
0.0
  0
LINE
  5
167
330
14C
100
AcDbEntity
 67
     1
  8
1
  6
CENTER
 62
     2
100
AcDbLine
 10
139.728534
 20
214.028743
 30
0.0
 11
220.567993
 21
180.543943
 31
0.0
  0
LINE
  5
168
330
14C
100
AcDbEntity
 67
     1
  8
1
  6
CENTER
 62
     2
100
AcDbLine
 10
68.095763
 20
159.335886
 30
0.0
 11
138.704211
 21
213.515653
 31
0.0
  0
LINE
  5
169
330
14C
100
AcDbEntity
 67
     1
  8
1
  6
CENTER
 62
     2
100
AcDbLine
 10
128.043891
 20
301.123701
 30
0.0
 11
139.20388
 21
216.355165
 31
0.0
  0
ARC
  5
16A
330
14C
100
AcDbEntity
 67
     1
  8
1
  6
CENTER
 62
     2
100
AcDbCircle
 10
139.497564
 20
214.124414
 30
0.0
 40
82.0
100
AcDbArc
 50
96.626589
 51
95.578495
  0
LINE
  5
16B
330
14C
100
AcDbEntity
 67
     1
  8
1
  6
CENTER
 62
     2
100
AcDbLine
 10
139.2598
 20
214.201668
 30
0.0
 11
218.673019
 21
188.398749
 31
0.0
  0
LINE
  5
16C
330
14C
100
AcDbEntity
 67
     1
  8
1
  6
CENTER
 62
     2
100
AcDbLine
 10
77.630757
 20
158.419291
 30
0.0
 11
139.68335
 21
214.291697
 31
0.0
  0
LINE
  5
16D
330
14C
100
AcDbEntity
 67
     1
  8
1
  6
CENTER
 62
     2
100
AcDbLine
 10
122.188916
 20
295.555202
 30
0.0
 11
139.34163
 21
214.858025
 31
0.0
  0
ARC
  5
16E
330
14C
100
AcDbEntity
 67
     1
  8
1
  6
CENTER
 62
     2
100
AcDbCircle
 10
139.497564
 20
214.124414
 30
0.0
 40
77.50000000000004
100
AcDbArc
 50
101.075875
 51
99.966924
  0
LINE
  5
16F
330
14C
100
AcDbEntity
 67
     1
  8
1
  6
CENTER
 62
     2
100
AcDbLine
 10
28.497564
 20
214.124414
 30
0.0
 11
250.497564
 21
214.124414
 31
0.0
  0
LINE
  5
170
330
14C
100
AcDbEntity
 67
     1
  8
1
  6
CENTER
 62
     2
100
AcDbLine
 10
139.497564
 20
103.124414
 30
0.0
 11
139.497564
 21
325.124414
 31
0.0
  0
DIMENSION
  5
17E
330
14C
100
AcDbEntity
 67
     1
  8
1
  6
Continuous
 62
     4
370
    -3
100
AcDbDimension
  2
dim1
 10
557.411193
 20
227.124414
 30
0.0
 11
557.411193
 21
204.124414
 31
0.0
 70
   160
  1
\C4;46
 71
     5
 42
-1.0
  3
Standard
100
AcDbAlignedDimension
 13
500.224245
 23
181.124414
 33
0.0
 14
500.224245
 24
227.124414
 34
0.0
 50
90.0
100
AcDbRotatedDimension
1001
ACAD
1000
DSTYLE
1002
{
1070
    74
1070
     0
1070
   279
1070
     0
1070
   172
1070
     1
1070
   173
1070
     1
1070
   340
1005
173
1070
   271
1070
     2
1070
   272
1070
     2
1070
    77
1070
     1
1070
    73
1070
     0
1070
   177
1070
     4
1070
   176
1070
     4
1070
   178
1070
     4
1070
    78
1070
     8
1070
    48
1040
-0.005
1070
    41
1041
2.0
1070
   147
1041
1.25
1070
    42
1041
0.0
1070
    44
1041
1.5
1070
   140
1041
5.0
1070
   343
1005
17F
1070
   344
1005
17F
1002
}
  0
DIMENSION
  5
190
330
14C
100
AcDbEntity
 67
     1
  8
1
  6
Continuous
 62
     4
370
    -3
100
AcDbDimension
  2
dim2
 10
578.030562
 20
161.261914
 30
0.0
 11
578.030562
 21
204.124414
 31
0.0
 70
   160
  1
\C4;85.72
 71
     5
 42
-1.0
  3
Standard
100
AcDbAlignedDimension
 13
415.611745
 23
246.986914
 33
0.0
 14
415.611745
 24
161.261914
 34
0.0
 50
90.0
100
AcDbRotatedDimension
1001
ACAD
1000
DSTYLE
1002
{
1070
    74
1070
     0
1070
   279
1070
     0
1070
   172
1070
     1
1070
   173
1070
     1
1070
   340
1005
173
1070
   271
1070
     2
1070
   272
1070
     2
1070
    77
1070
     1
1070
    73
1070
     0
1070
   177
1070
     4
1070
   176
1070
     4
1070
   178
1070
     4
1070
    78
1070
     8
1070
    48
1040
-0.005
1070
    41
1041
2.0
1070
   147
1041
1.25
1070
    42
1041
0.0
1070
    44
1041
1.5
1070
   140
1041
5.0
1070
   343
1005
17F
1070
   344
1005
17F
1002
}
  0
DIMENSION
  5
19C
330
14C
100
AcDbEntity
 67
     1
  8
1
  6
Continuous
 62
     4
370
    -3
100
AcDbDimension
  2
dim3
 10
566.617026
 20
162.374414
 30
0.0
 11
566.617026
 21
204.124414
 31
0.0
 70
   160
  1
\C4;83.5
 71
     5
 42
-1.0
  3
Standard
100
AcDbAlignedDimension
 13
435.474245
 23
245.874414
 33
0.0
 14
435.474245
 24
162.374414
 34
0.0
 50
90.0
100
AcDbRotatedDimension
1001
ACAD
1000
DSTYLE
1002
{
1070
    74
1070
     0
1070
   279
1070
     0
1070
   172
1070
     1
1070
   173
1070
     1
1070
   340
1005
173
1070
   271
1070
     2
1070
   272
1070
     2
1070
    77
1070
     1
1070
    73
1070
     0
1070
   177
1070
     4
1070
   176
1070
     4
1070
   178
1070
     4
1070
    78
1070
     8
1070
    48
1040
-0.005
1070
    41
1041
2.0
1070
   147
1041
1.25
1070
    42
1041
0.0
1070
    44
1041
1.5
1070
   140
1041
5.0
1070
   343
1005
17F
1070
   344
1005
17F
1002
}
  0
DIMENSION
  5
1A8
330
14C
100
AcDbEntity
 67
     1
  8
1
  6
Continuous
 62
     4
370
    -3
100
AcDbDimension
  2
dim4
 10
473.724245
 20
110.291091
 30
0.0
 11
450.724245
 21
110.291091
 31
0.0
 70
   160
  1
\C4;46
 71
     5
 42
-1.0
  3
Standard
100
AcDbAlignedDimension
 13
427.724245
 23
154.624414
 33
0.0
 14
473.724245
 24
154.624414
 34
0.0
100
AcDbRotatedDimension
1001
ACAD
1000
DSTYLE
1002
{
1070
   279
1070
     0
1070
   172
1070
     1
1070
   173
1070
     1
1070
   340
1005
173
1070
   271
1070
     2
1070
   272
1070
     2
1070
    77
1070
     1
1070
    73
1070
     0
1070
   177
1070
     4
1070
   176
1070
     4
1070
   178
1070
     4
1070
    78
1070
     8
1070
    48
1040
-0.005
1070
    41
1041
2.0
1070
   147
1041
1.25
1070
    42
1041
0.0
1070
    44
1041
1.5
1070
   140
1041
5.0
1070
   343
1005
17F
1070
   344
1005
17F
1002
}
  0
DIMENSION
  5
1B4
330
14C
100
AcDbEntity
 67
     1
  8
1
  6
Continuous
 62
     4
370
    -3
100
AcDbDimension
  2
dim5
 10
492.474245
 20
99.18188
 30
0.0
 11
450.724245
 21
99.18188
 31
0.0
 70
   160
  1
\C4;83.5
 71
     5
 42
-1.0
  3
Standard
100
AcDbAlignedDimension
 13
408.974245
 23
219.374414
 33
0.0
 14
492.474245
 24
219.374414
 34
0.0
100
AcDbRotatedDimension
1001
ACAD
1000
DSTYLE
1002
{
1070
   279
1070
     0
1070
   172
1070
     1
1070
   173
1070
     1
1070
   340
1005
173
1070
   271
1070
     2
1070
   272
1070
     2
1070
    77
1070
     1
1070
    73
1070
     0
1070
   177
1070
     4
1070
   176
1070
     4
1070
   178
1070
     4
1070
    78
1070
     8
1070
    48
1040
-0.005
1070
    41
1041
2.0
1070
   147
1041
1.25
1070
    42
1041
0.0
1070
    44
1041
1.5
1070
   140
1041
5.0
1070
   343
1005
17F
1070
   344
1005
17F
1002
}
  0
DIMENSION
  5
1C0
330
14C
100
AcDbEntity
 67
     1
  8
1
  6
Continuous
 62
     4
370
    -3
100
AcDbDimension
  2
dim6
 10
493.586745
 20
87.06274
 30
0.0
 11
450.724245
 21
87.06274
 31
0.0
 70
   160
  1
\C4;85.72
 71
     5
 42
-1.0
  3
Standard
100
AcDbAlignedDimension
 13
407.861745
 23
153.511914
 33
0.0
 14
493.586745
 24
153.511914
 34
0.0
100
AcDbRotatedDimension
1001
ACAD
1000
DSTYLE
1002
{
1070
   279
1070
     0
1070
   172
1070
     1
1070
   173
1070
     1
1070
   340
1005
173
1070
   271
1070
     2
1070
   272
1070
     2
1070
    77
1070
     1
1070
    73
1070
     0
1070
   177
1070
     4
1070
   176
1070
     4
1070
   178
1070
     4
1070
    78
1070
     8
1070
    48
1040
-0.005
1070
    41
1041
2.0
1070
   147
1041
1.25
1070
    42
1041
0.0
1070
    44
1041
1.5
1070
   140
1041
5.0
1070
   343
1005
17F
1070
   344
1005
17F
1002
}
  0
DIMENSION
  5
1CB
330
14C
100
AcDbEntity
 67
     1
  8
1
  6
Continuous
 62
     4
370
    -3
100
AcDbDimension
  2
dim7
 10
545.048189
 20
214.124414
 30
0.0
 11
545.048189
 21
209.124414
 31
0.0
 70
   160
  1
\C4;10
 71
     5
 42
-1.0
  3
Standard
100
AcDbAlignedDimension
 13
536.224245
 23
204.124414
 33
0.0
 14
545.048189
 24
214.124414
 34
0.0
 50
90.0
100
AcDbRotatedDimension
1001
ACAD
1000
DSTYLE
1002
{
1070
    74
1070
     0
1070
   279
1070
     0
1070
   172
1070
     1
1070
   173
1070
     1
1070
   340
1005
173
1070
   271
1070
     2
1070
   272
1070
     2
1070
    77
1070
     1
1070
    73
1070
     0
1070
   177
1070
     4
1070
   176
1070
     4
1070
   178
1070
     4
1070
    78
1070
     8
1070
    48
1040
-0.005
1070
    41
1041
2.0
1070
   147
1041
1.25
1070
    42
1041
0.0
1070
    44
1041
1.5
1070
   140
1041
5.0
1070
   343
1005
17F
1070
   344
1005
17F
1002
}
  0
DIMENSION
  5
1D7
330
14C
100
AcDbEntity
 67
     1
  8
1
  6
Continuous
 62
     4
370
    -3
100
AcDbDimension
  2
dim8
 10
40.031351
 20
124.564634
 30
0.0
 11
55.047361
 21
320.848404
 31
0.0
 70
    34
  1
\C4 <> 
 71
     5
 42
-1.0
  3
Standard
100
AcDb2LineAngularDimension
 13
122.188916
 23
295.555202
 33
0.0
 14
111.669626
 24
345.044572
 34
0.0
 15
77.630757
 25
158.419291
 35
0.0
 16
55.047361
 26
320.848404
 36
0.0
1001
ACAD
1000
DSTYLE
1002
{
1070
   173
1070
     1
1070
   340
1005
173
1070
   271
1070
     2
1070
   272
1070
     2
1070
    77
1070
     1
1070
    73
1070
     0
1070
   177
1070
     4
1070
   176
1070
     4
1070
   178
1070
     4
1070
    78
1070
     8
1070
    48
1040
-0.005
1070
    41
1041
2.0
1070
   147
1041
1.25
1070
    42
1041
0.0
1070
    44
1041
1.5
1070
   140
1041
5.0
1070
   343
1005
17F
1070
   344
1005
17F
1002
}
  0
DIMENSION
  5
1E3
330
14C
100
AcDbEntity
 67
     1
  8
1
  6
Continuous
 62
     4
370
    -3
100
AcDbDimension
  2
dim9
 10
111.540499
 20
345.652066
 30
0.0
 11
241.097395
 21
305.605313
 31
0.0
 70
    34
  1
\C4 <> 
 71
     5
 42
-1.0
  3
Standard
100
AcDb2LineAngularDimension
 13
218.673019
 23
188.398749
 33
0.0
 14
267.382385
 24
172.572117
 34
0.0
 15
122.188916
 25
295.555202
 35
0.0
 16
241.097395
 26
305.605313
 36
0.0
1001
ACAD
1000
DSTYLE
1002
{
1070
   173
1070
     1
1070
   340
1005
173
1070
   271
1070
     2
1070
   272
1070
     2
1070
    77
1070
     1
1070
    73
1070
     0
1070
   177
1070
     4
1070
   176
1070
     4
1070
   178
1070
     4
1070
    78
1070
     8
1070
    48
1040
-0.005
1070
    41
1041
2.0
1070
   147
1041
1.25
1070
    42
1041
0.0
1070
    44
1041
1.5
1070
   140
1041
5.0
1070
   343
1005
17F
1070
   344
1005
17F
1002
}
  0
DIMENSION
  5
1EF
330
14C
100
AcDbEntity
 67
     1
  8
1
  6
Continuous
 62
     4
370
    -3
100
AcDbDimension
  2
dim10
 10
125.22044
 20
322.569941
 30
0.0
 11
228.060628
 21
282.081243
 31
0.0
 70
    34
  1
\C4 <> 
 71
     5
 42
-1.0
  3
Standard
100
AcDb2LineAngularDimension
 13
220.567993
 23
180.543943
 33
0.0
 14
240.552708
 24
172.266003
 34
0.0
 15
128.043891
 25
301.123701
 35
0.0
 16
228.060628
 26
282.081243
 36
0.0
1001
ACAD
1000
DSTYLE
1002
{
1070
   173
1070
     1
1070
   340
1005
173
1070
   271
1070
     2
1070
   272
1070
     2
1070
    77
1070
     1
1070
    73
1070
     0
1070
   177
1070
     4
1070
   176
1070
     4
1070
   178
1070
     4
1070
    78
1070
     8
1070
    48
1040
-0.005
1070
    41
1041
2.0
1070
   147
1041
1.25
1070
    42
1041
0.0
1070
    44
1041
1.5
1070
   140
1041
5.0
1070
   343
1005
17F
1070
   344
1005
17F
1002
}
  0
DIMENSION
  5
1FB
330
14C
100
AcDbEntity
 67
     1
  8
1
  6
Continuous
 62
     4
370
    -3
100
AcDbDimension
  2
dim11
 10
52.602958
 20
147.447838
 30
0.0
 11
36.227923
 21
256.9001
 31
0.0
 70
    34
  1
\C4 <> 
 71
     5
 42
-1.0
  3
Standard
100
AcDb2LineAngularDimension
 13
128.043891
 23
301.123701
 33
0.0
 14
125.201258
 24
322.715639
 34
0.0
 15
68.095763
 25
159.335886
 35
0.0
 16
36.227923
 26
256.9001
 36
0.0
1001
ACAD
1000
DSTYLE
1002
{
1070
   173
1070
     1
1070
   340
1005
173
1070
   271
1070
     2
1070
   272
1070
     2
1070
    77
1070
     1
1070
    73
1070
     0
1070
   177
1070
     4
1070
   176
1070
     4
1070
   178
1070
     4
1070
    78
1070
     8
1070
    48
1040
-0.005
1070
    41
1041
2.0
1070
   147
1041
1.25
1070
    42
1041
0.0
1070
    44
1041
1.5
1070
   140
1041
5.0
1070
   343
1005
17F
1070
   344
1005
17F
1002
}
  0
DIMENSION
  5
207
330
14C
100
AcDbEntity
 67
     1
  8
1
  6
Continuous
 62
     4
370
    -3
100
AcDbDimension
  2
dim12
 10
103.594951
 20
306.061539
 30
0.0
 11
103.594951
 21
306.061539
 31
0.0
 70
    34
  1
\C4 <> 
 71
     5
 42
-1.0
  3
Standard
100
AcDb2LineAngularDimension
 13
0.0
 23
0.0
 33
0.0
 14
0.0
 24
0.0
 34
0.0
 15
0.0
 25
0.0
 35
0.0
 16
103.594951
 26
306.061539
 36
0.0
1001
ACAD
1000
DSTYLE
1002
{
1070
   173
1070
     1
1070
   340
1005
173
1070
   271
1070
     2
1070
   272
1070
     2
1070
    77
1070
     1
1070
    73
1070
     0
1070
   177
1070
     4
1070
   176
1070
     4
1070
   178
1070
     4
1070
    78
1070
     8
1070
    48
1040
-0.005
1070
    41
1041
2.0
1070
   147
1041
1.25
1070
    42
1041
0.0
1070
    44
1041
1.5
1070
   140
1041
5.0
1070
   343
1005
17F
1070
   344
1005
17F
1002
}
  0
DIMENSION
  5
213
330
14C
100
AcDbEntity
 67
     1
  8
1
  6
Continuous
 62
     4
370
    -3
100
AcDbDimension
  2
dim13
 10
113.860458
 20
334.737516
 30
0.0
 11
126.373214
 21
338.994267
 31
0.0
 70
    34
  1
\C4 <> 
 71
     5
 42
-1.0
  3
Standard
100
AcDb2LineAngularDimension
 13
139.497564
 23
325.124414
 33
0.0
 14
139.497564
 24
337.432085
 34
0.0
 15
122.188916
 25
295.555202
 35
0.0
 16
126.373214
 26
338.994267
 36
0.0
1001
ACAD
1000
DSTYLE
1002
{
1070
   173
1070
     1
1070
   340
1005
173
1070
   271
1070
     2
1070
   272
1070
     2
1070
    77
1070
     1
1070
    73
1070
     0
1070
   177
1070
     4
1070
   176
1070
     4
1070
   178
1070
     4
1070
    78
1070
     8
1070
    48
1040
-0.005
1070
    41
1041
2.0
1070
   147
1041
1.25
1070
    42
1041
0.0
1070
    44
1041
1.5
1070
   140
1041
5.0
1070
   343
1005
17F
1070
   344
1005
17F
1002
}
  0
DIMENSION
  5
220
330
14C
100
AcDbEntity
 67
     1
  8
1
  6
Continuous
 62
     4
370
    -3
100
AcDbDimension
  2
dim14
 10
409.774597
 20
245.802221
 30
0.0
 11
355.886483
 21
282.117567
 31
0.0
 70
   163
  1
 \C4;\H5.00;14-\H2.50;\C4;%%c 4.5
 71
     5
 42
-1.0
  3
Standard
100
AcDbDiametricDimension
 15
405.948894
 25
248.171607
 35
0.0
 40
0.0
1001
ACAD
1000
DSTYLE
1002
{
1070
   172
1070
     1
1070
   279
1070
     0
1070
   173
1070
     1
1070
   340
1005
173
1070
   271
1070
     2
1070
   272
1070
     2
1070
    77
1070
     1
1070
    73
1070
     0
1070
   177
1070
     4
1070
   176
1070
     4
1070
   178
1070
     4
1070
    78
1070
     8
1070
    48
1040
-0.005
1070
    41
1041
2.0
1070
   147
1041
1.25
1070
    42
1041
0.0
1070
    44
1041
1.5
1070
   140
1041
5.0
1070
   343
1005
17F
1070
   344
1005
17F
1002
}
  0
DIMENSION
  5
229
330
14C
100
AcDbEntity
 67
     1
  8
1
  6
Continuous
 62
     4
370
    -3
100
AcDbDimension
  2
dim15
 10
450.724245
 20
214.124414
 30
0.0
 11
402.915901
 21
288.79216
 31
0.0
 70
   164
  1
\C4;R 74
 71
     5
 42
-1.0
  3
Standard
100
AcDbRadialDimension
 15
408.221688
 25
274.701081
 35
0.0
 40
0.0
1001
ACAD
1000
DSTYLE
1002
{
1070
   279
1070
     0
1070
   173
1070
     1
1070
   340
1005
173
1070
   271
1070
     2
1070
   272
1070
     2
1070
    77
1070
     1
1070
    73
1070
     0
1070
   177
1070
     4
1070
   176
1070
     4
1070
   178
1070
     4
1070
    78
1070
     8
1070
    48
1040
-0.005
1070
    41
1041
2.0
1070
   147
1041
1.25
1070
    42
1041
0.0
1070
    44
1041
1.5
1070
   140
1041
5.0
1070
   343
1005
17F
1070
   344
1005
17F
1002
}
  0
DIMENSION
  5
232
330
14C
100
AcDbEntity
 67
     1
  8
1
  6
Continuous
 62
     4
370
    -3
100
AcDbDimension
  2
dim16
 10
450.724245
 20
214.124414
 30
0.0
 11
376.186466
 21
143.1605
 31
0.0
 70
   164
  1
\C4;R 80
 71
     5
 42
-1.0
  3
Standard
100
AcDbRadialDimension
 15
394.832173
 25
156.887396
 35
0.0
 40
0.0
1001
ACAD
1000
DSTYLE
1002
{
1070
   279
1070
     0
1070
   173
1070
     1
1070
   340
1005
173
1070
   271
1070
     2
1070
   272
1070
     2
1070
    77
1070
     1
1070
    73
1070
     0
1070
   177
1070
     4
1070
   176
1070
     4
1070
   178
1070
     4
1070
    78
1070
     8
1070
    48
1040
-0.005
1070
    41
1041
2.0
1070
   147
1041
1.25
1070
    42
1041
0.0
1070
    44
1041
1.5
1070
   140
1041
5.0
1070
   343
1005
17F
1070
   344
1005
17F
1002
}
  0
DIMENSION
  5
23E
330
14C
100
AcDbEntity
 67
     1
  8
1
  6
Continuous
 62
     4
370
    -3
100
AcDbDimension
  2
dim17
 10
307.540989
 20
332.947406
 30
0.0
 11
305.440989
 21
332.947406
 31
0.0
 70
   160
  1
\C4;4.2
 71
     5
 42
-1.0
  3
Standard
100
AcDbAlignedDimension
 13
303.340989
 23
288.117552
 33
0.0
 14
307.540989
 24
274.276892
 34
0.0
100
AcDbRotatedDimension
1001
ACAD
1000
DSTYLE
1002
{
1070
   279
1070
     0
1070
   172
1070
     1
1070
   173
1070
     1
1070
   340
1005
173
1070
   271
1070
     2
1070
   272
1070
     2
1070
    77
1070
     1
1070
    73
1070
     0
1070
   177
1070
     4
1070
   176
1070
     4
1070
   178
1070
     4
1070
    78
1070
     8
1070
    48
1040
-0.005
1070
    41
1041
2.0
1070
   147
1041
1.25
1070
    42
1041
0.0
1070
    44
1041
1.5
1070
   140
1041
5.0
1070
   343
1005
17F
1070
   344
1005
17F
1002
}
  0
VIEWPORT
  5
23F
330
14C
100
AcDbEntity
 67
     1
  8
0
100
AcDbViewport
 10
305.440989
 20
217.273653
 30
0.0
 40
16.9
 41
178.998479
 68
     2
 69
     2
 12
2.1
 22
3.149239
 13
0.0
 23
0.0
 14
1.0
 24
1.0
 15
1.0
 25
1.0
 16
0.0
 26
-1.0
 36
0.0
 17
0.0
 27
0.0
 37
0.0
 42
20.858996
 43
0.0
 44
0.0
 45
178.998479
 50
0.0
 51
0.0
 72
   100
331
43
331
5B
 90
   557152
  1

281
     0
 71
     1
 74
     0
110
0.0
120
0.0
130
0.0
111
1.0
121
0.0
131
0.0
112
0.0
122
1.0
132
0.0
 79
     0
146
0.0
170
     0
  0
VIEWPORT
  5
240
330
14C
100
AcDbEntity
 67
     1
  8
0
100
AcDbViewport
 10
447.345185
 20
217.273653
 30
0.0
 40
167.458122
 41
178.998479
 68
     3
 69
     3
 12
-3.379061
 22
3.149239
 13
0.0
 23
0.0
 14
1.0
 24
1.0
 15
1.0
 25
1.0
 16
1.0
 26
0.0
 36
0.0
 17
0.0
 27
0.0
 37
0.0
 42
20.858996
 43
0.0
 44
0.0
 45
178.998479
 50
0.0
 51
0.0
 72
   100
331
5B
331
73
 90
   557152
  1

281
     0
 71
     1
 74
     0
110
0.0
120
0.0
130
0.0
111
1.0
121
0.0
131
0.0
112
0.0
122
1.0
132
0.0
 79
     0
146
0.0
170
     0
  0
VIEWPORT
  5
241
330
14C
100
AcDbEntity
 67
     1
  8
0
100
AcDbViewport
 10
142.876625
 20
217.273653
 30
0.0
 40
167.458122
 41
178.998479
 68
     4
 69
     4
 12
3.379061
 22
3.149239
 13
0.0
 23
0.0
 14
1.0
 24
1.0
 15
1.0
 25
1.0
 16
-1.0
 26
0.0
 36
0.0
 17
0.0
 27
0.0
 37
0.0
 42
20.858996
 43
0.0
 44
0.0
 45
178.998479
 50
0.0
 51
0.0
 72
   100
331
43
331
73
 90
   557152
  1

281
     0
 71
     1
 74
     0
110
0.0
120
0.0
130
0.0
111
1.0
121
0.0
131
0.0
112
0.0
122
1.0
132
0.0
 79
     0
146
0.0
170
     0
  0
ENDSEC
  0
SECTION
  2
OBJECTS
  0
DICTIONARY
  5
C
330
0
100
AcDbDictionary
281
     1
  3
ACAD_GROUP
350
D
  3
ACAD_LAYOUT
350
1A
  3
ACAD_MLEADERSTYLE
350
276
  3
ACAD_MLINESTYLE
350
17
  3
ACAD_PLOTSETTINGS
350
19
  3
ACAD_PLOTSTYLENAME
350
E
  3
ACAD_SCALELIST
350
253
  3
ACAD_TABLESTYLE
350
275
  3
ACAD_VISUALSTYLE
350
2A
  3
AcDbVariableDictionary
350
277
  0
DICTIONARY
  5
D
102
{ACAD_REACTORS
330
C
102
}
330
C
100
AcDbDictionary
281
     1
  0
DICTIONARY
  5
1A
102
{ACAD_REACTORS
330
C
102
}
330
C
100
AcDbDictionary
281
     1
  3
Model
350
22
  3
SHT1
350
242
  0
DICTIONARY
  5
276
102
{ACAD_REACTORS
330
C
102
}
330
C
100
AcDbDictionary
281
     1
  0
DICTIONARY
  5
17
102
{ACAD_REACTORS
330
C
102
}
330
C
100
AcDbDictionary
281
     1
  3
Standard
350
18
  0
DICTIONARY
  5
19
102
{ACAD_REACTORS
330
C
102
}
330
C
100
AcDbDictionary
281
     1
  0
ACDBDICTIONARYWDFLT
  5
E
102
{ACAD_REACTORS
330
C
102
}
330
C
100
AcDbDictionary
281
     1
  3
Normal
350
F
100
AcDbDictionaryWithDefault
340
F
  0
DICTIONARY
  5
253
102
{ACAD_REACTORS
330
C
102
}
330
C
100
AcDbDictionary
281
     1
  3
A0
350
254
  3
A1
350
255
  3
A2
350
256
  3
A3
350
257
  3
A4
350
258
  3
A5
350
259
  3
A6
350
25A
  3
A7
350
25B
  3
A8
350
25C
  3
A9
350
25D
  3
B0
350
25E
  3
B1
350
25F
  3
B2
350
260
  3
B3
350
261
  3
B4
350
262
  3
B5
350
263
  3
B6
350
264
  3
B7
350
265
  3
B8
350
266
  3
B9
350
267
  3
C0
350
268
  3
C1
350
269
  3
C2
350
26A
  3
C3
350
26B
  3
C4
350
26C
  3
C5
350
26D
  3
C6
350
26E
  3
C7
350
26F
  3
C8
350
270
  3
C9
350
271
  3
D0
350
272
  3
D1
350
273
  3
D2
350
274
  0
DICTIONARY
  5
275
102
{ACAD_REACTORS
330
C
102
}
330
C
100
AcDbDictionary
281
     1
  0
DICTIONARY
  5
2A
102
{ACAD_REACTORS
330
C
102
}
330
C
100
AcDbDictionary
281
     1
  3
2dWireframe
350
2F
  3
3D Hidden
350
31
  3
3dWireframe
350
30
  3
Basic
350
32
  3
Brighten
350
36
  3
ColorChange
350
3A
  3
Conceptual
350
34
  3
Dim
350
35
  3
Facepattern
350
39
  3
Flat
350
2B
  3
FlatWithEdges
350
2C
  3
Gouraud
350
2D
  3
GouraudWithEdges
350
2E
  3
Linepattern
350
38
  3
Realistic
350
33
  3
Thicken
350
37
  0
DICTIONARY
  5
277
102
{ACAD_REACTORS
330
C
102
}
330
C
100
AcDbDictionary
281
     1
  3
CANNOSCALE
350
278
  0
LAYOUT
  5
22
102
{ACAD_REACTORS
330
1A
102
}
330
1A
100
AcDbPlotSettings
  1

  2
none_device
  4

  6

 40
0.0
 41
0.0
 42
0.0
 43
0.0
 44
0.0
 45
0.0
 46
0.0
 47
0.0
 48
0.0
 49
0.0
140
0.0
141
0.0
142
1.0
143
1.0
 70
  1712
 72
     0
 73
     0
 74
     0
  7

 75
     0
 76
     0
 77
     2
 78
   300
147
1.0
148
0.0
149
0.0
100
AcDbLayout
  1
Model
 70
     1
 71
     0
 10
-0.5
 20
-0.5
 11
5.0
 21
5.0
 12
0.0
 22
0.0
 32
0.0
 14
-0.5
 24
-0.5
 34
-0.5
 15
5.0
 25
5.0
 35
5.0
146
0.0
 13
0.0
 23
0.0
 33
0.0
 16
1.0
 26
0.0
 36
0.0
 17
0.0
 27
1.0
 37
0.0
 76
     0
330
1F
331
29
  0
LAYOUT
  5
242
102
{ACAD_REACTORS
330
1A
102
}
330
1A
100
AcDbPlotSettings
  1

  2
none_device
  4
ISO_B2_(707.00_x_500.00_MM)
  6

 40
7.5
 41
20.0
 42
7.5
 43
20.0
 44
707.0
 45
500.0
 46
0.0
 47
0.0
 48
0.0
 49
0.0
140
634.0
141
460.0
142
1.0
143
1.0
 70
   672
 72
     1
 73
     0
 74
     1
  7

 75
    16
 76
     0
 77
     2
 78
   300
147
1.0
148
0.0
149
0.0
100
AcDbLayout
  1
SHT1
 70
     1
 71
     3
 10
0.0
 20
0.0
 11
594.0
 21
420.0
 12
0.0
 22
0.0
 32
0.0
 14
0.0
 24
0.0
 34
0.0
 15
594.0
 25
420.0
 35
0.0
146
0.0
 13
0.0
 23
0.0
 33
0.0
 16
1.0
 26
0.0
 36
0.0
 17
0.0
 27
1.0
 37
0.0
 76
     0
330
14C
331
14F
  0
MLINESTYLE
  5
18
102
{ACAD_REACTORS
330
17
102
}
330
17
100
AcDbMlineStyle
  2
Standard
 70
     0
  3

 62
   256
 51
90.0
 52
90.0
 71
     2
 49
0.5
 62
   256
  6
BYLAYER
 49
-0.5
 62
   256
  6
BYLAYER
  0
ACDBPLACEHOLDER
  5
F
102
{ACAD_REACTORS
330
E
102
}
330
E
  0
SCALE
  5
254
102
{ACAD_REACTORS
330
253
102
}
330
253
100
AcDbScale
 70
     0
300
1:1
140
1.0
141
1.0
290
     1
  0
SCALE
  5
255
102
{ACAD_REACTORS
330
253
102
}
330
253
100
AcDbScale
 70
     0
300
1:2
140
1.0
141
2.0
290
     0
  0
SCALE
  5
256
102
{ACAD_REACTORS
330
253
102
}
330
253
100
AcDbScale
 70
     0
300
1:4
140
1.0
141
4.0
290
     0
  0
SCALE
  5
257
102
{ACAD_REACTORS
330
253
102
}
330
253
100
AcDbScale
 70
     0
300
1:5
140
1.0
141
5.0
290
     0
  0
SCALE
  5
258
102
{ACAD_REACTORS
330
253
102
}
330
253
100
AcDbScale
 70
     0
300
1:8
140
1.0
141
8.0
290
     0
  0
SCALE
  5
259
102
{ACAD_REACTORS
330
253
102
}
330
253
100
AcDbScale
 70
     0
300
1:10
140
1.0
141
10.0
290
     0
  0
SCALE
  5
25A
102
{ACAD_REACTORS
330
253
102
}
330
253
100
AcDbScale
 70
     0
300
1:16
140
1.0
141
16.0
290
     0
  0
SCALE
  5
25B
102
{ACAD_REACTORS
330
253
102
}
330
253
100
AcDbScale
 70
     0
300
1:20
140
1.0
141
20.0
290
     0
  0
SCALE
  5
25C
102
{ACAD_REACTORS
330
253
102
}
330
253
100
AcDbScale
 70
     0
300
1:30
140
1.0
141
30.0
290
     0
  0
SCALE
  5
25D
102
{ACAD_REACTORS
330
253
102
}
330
253
100
AcDbScale
 70
     0
300
1:40
140
1.0
141
40.0
290
     0
  0
SCALE
  5
25E
102
{ACAD_REACTORS
330
253
102
}
330
253
100
AcDbScale
 70
     0
300
1:50
140
1.0
141
50.0
290
     0
  0
SCALE
  5
25F
102
{ACAD_REACTORS
330
253
102
}
330
253
100
AcDbScale
 70
     0
300
1:100
140
1.0
141
100.0
290
     0
  0
SCALE
  5
260
102
{ACAD_REACTORS
330
253
102
}
330
253
100
AcDbScale
 70
     0
300
2:1
140
2.0
141
1.0
290
     0
  0
SCALE
  5
261
102
{ACAD_REACTORS
330
253
102
}
330
253
100
AcDbScale
 70
     0
300
4:1
140
4.0
141
1.0
290
     0
  0
SCALE
  5
262
102
{ACAD_REACTORS
330
253
102
}
330
253
100
AcDbScale
 70
     0
300
8:1
140
8.0
141
1.0
290
     0
  0
SCALE
  5
263
102
{ACAD_REACTORS
330
253
102
}
330
253
100
AcDbScale
 70
     0
300
10:1
140
10.0
141
1.0
290
     0
  0
SCALE
  5
264
102
{ACAD_REACTORS
330
253
102
}
330
253
100
AcDbScale
 70
     0
300
100:1
140
100.0
141
1.0
290
     0
  0
SCALE
  5
265
102
{ACAD_REACTORS
330
253
102
}
330
253
100
AcDbScale
 70
     0
300
1/128" = 1'-0"
140
0.007812
141
12.0
290
     0
  0
SCALE
  5
266
102
{ACAD_REACTORS
330
253
102
}
330
253
100
AcDbScale
 70
     0
300
1/64" = 1'-0"
140
0.015625
141
12.0
290
     0
  0
SCALE
  5
267
102
{ACAD_REACTORS
330
253
102
}
330
253
100
AcDbScale
 70
     0
300
1/32" = 1'-0"
140
0.03125
141
12.0
290
     0
  0
SCALE
  5
268
102
{ACAD_REACTORS
330
253
102
}
330
253
100
AcDbScale
 70
     0
300
1/16" = 1'-0"
140
0.0625
141
12.0
290
     0
  0
SCALE
  5
269
102
{ACAD_REACTORS
330
253
102
}
330
253
100
AcDbScale
 70
     0
300
3/32" = 1'-0"
140
0.09375
141
12.0
290
     0
  0
SCALE
  5
26A
102
{ACAD_REACTORS
330
253
102
}
330
253
100
AcDbScale
 70
     0
300
1/8" = 1'-0"
140
0.125
141
12.0
290
     0
  0
SCALE
  5
26B
102
{ACAD_REACTORS
330
253
102
}
330
253
100
AcDbScale
 70
     0
300
3/16" = 1'-0"
140
0.1875
141
12.0
290
     0
  0
SCALE
  5
26C
102
{ACAD_REACTORS
330
253
102
}
330
253
100
AcDbScale
 70
     0
300
1/4" = 1'-0"
140
0.25
141
12.0
290
     0
  0
SCALE
  5
26D
102
{ACAD_REACTORS
330
253
102
}
330
253
100
AcDbScale
 70
     0
300
3/8" = 1'-0"
140
0.375
141
12.0
290
     0
  0
SCALE
  5
26E
102
{ACAD_REACTORS
330
253
102
}
330
253
100
AcDbScale
 70
     0
300
1/2" = 1'-0"
140
0.5
141
12.0
290
     0
  0
SCALE
  5
26F
102
{ACAD_REACTORS
330
253
102
}
330
253
100
AcDbScale
 70
     0
300
3/4" = 1'-0"
140
0.75
141
12.0
290
     0
  0
SCALE
  5
270
102
{ACAD_REACTORS
330
253
102
}
330
253
100
AcDbScale
 70
     0
300
1" = 1'-0"
140
1.0
141
12.0
290
     0
  0
SCALE
  5
271
102
{ACAD_REACTORS
330
253
102
}
330
253
100
AcDbScale
 70
     0
300
1-1/2" = 1'-0"
140
1.5
141
12.0
290
     0
  0
SCALE
  5
272
102
{ACAD_REACTORS
330
253
102
}
330
253
100
AcDbScale
 70
     0
300
3" = 1'-0"
140
3.0
141
12.0
290
     0
  0
SCALE
  5
273
102
{ACAD_REACTORS
330
253
102
}
330
253
100
AcDbScale
 70
     0
300
6" = 1'-0"
140
6.0
141
12.0
290
     0
  0
SCALE
  5
274
102
{ACAD_REACTORS
330
253
102
}
330
253
100
AcDbScale
 70
     0
300
1'-0" = 1'-0"
140
12.0
141
12.0
290
     0
  0
VISUALSTYLE
  5
2F
102
{ACAD_REACTORS
330
2A
102
}
330
2A
100
AcDbVisualStyle
  2
2dWireframe
 70
     4
 71
     0
 72
     2
 73
     0
 90
        0
 40
-0.6
 41
-30.0
 62
     5
 63
     7
421
 16777215
 74
     1
 91
        4
 64
     7
 65
   257
 75
     1
175
     1
 42
1.0
 92
        0
 66
   257
 43
1.0
 76
     1
 77
     6
 78
     2
 67
     7
 79
     5
170
     0
171
     0
290
     0
174
     0
 93
        1
 44
0.0
173
     0
291
     0
 45
0.0
1001
ACAD
1000
AcDbSavedByObjectVersion
1070
     0
  0
VISUALSTYLE
  5
31
102
{ACAD_REACTORS
330
2A
102
}
330
2A
100
AcDbVisualStyle
  2
3D Hidden
 70
     6
 71
     1
 72
     2
 73
     2
 90
        0
 40
-0.6
 41
-30.0
 62
     5
 63
     7
421
 16777215
 74
     2
 91
        2
 64
     7
 65
   257
 75
     2
175
     1
 42
40.0
 92
        0
 66
   257
 43
1.0
 76
     1
 77
     6
 78
     2
 67
     7
 79
     3
170
     0
171
     0
290
     0
174
     0
 93
        1
 44
0.0
173
     0
291
     0
 45
0.0
1001
ACAD
1000
AcDbSavedByObjectVersion
1070
     0
  0
VISUALSTYLE
  5
30
102
{ACAD_REACTORS
330
2A
102
}
330
2A
100
AcDbVisualStyle
  2
3dWireframe
 70
     5
 71
     0
 72
     2
 73
     0
 90
        0
 40
-0.6
 41
-30.0
 62
     5
 63
     7
421
 16777215
 74
     1
 91
        4
 64
     7
 65
   257
 75
     1
175
     1
 42
1.0
 92
        0
 66
   257
 43
1.0
 76
     1
 77
     6
 78
     2
 67
     7
 79
     5
170
     0
171
     0
290
     0
174
     0
 93
        1
 44
0.0
173
     0
291
     0
 45
0.0
1001
ACAD
1000
AcDbSavedByObjectVersion
1070
     0
  0
VISUALSTYLE
  5
32
102
{ACAD_REACTORS
330
2A
102
}
330
2A
100
AcDbVisualStyle
  2
Basic
 70
     7
 71
     1
 72
     0
 73
     1
 90
        0
 40
-0.6
 41
-30.0
 62
     5
 63
     7
421
 16777215
 74
     0
 91
        4
 64
     7
 65
   257
 75
     1
175
     1
 42
1.0
 92
        8
 66
     7
 43
1.0
 76
     1
 77
     6
 78
     2
 67
     7
 79
     5
170
     0
171
     0
290
     0
174
     0
 93
        1
 44
0.0
173
     0
291
     1
 45
0.0
1001
ACAD
1000
AcDbSavedByObjectVersion
1070
     0
  0
VISUALSTYLE
  5
36
102
{ACAD_REACTORS
330
2A
102
}
330
2A
100
AcDbVisualStyle
  2
Brighten
 70
    12
 71
     2
 72
     2
 73
     0
 90
        0
 40
-0.6
 41
-30.0
 62
     5
 63
     7
421
 16777215
 74
     1
 91
        4
 64
     7
 65
   257
 75
     1
175
     1
 42
1.0
 92
        8
 66
     7
 43
1.0
 76
     1
 77
     6
 78
     2
 67
     7
 79
     5
170
     0
171
     0
290
     0
174
     0
 93
        1
 44
50.0
173
     0
291
     1
 45
0.0
1001
ACAD
1000
AcDbSavedByObjectVersion
1070
     0
  0
VISUALSTYLE
  5
3A
102
{ACAD_REACTORS
330
2A
102
}
330
2A
100
AcDbVisualStyle
  2
ColorChange
 70
    16
 71
     2
 72
     2
 73
     3
 90
        0
 40
-0.6
 41
-30.0
 62
     5
 63
     8
421
  8421504
 74
     1
 91
        4
 64
     7
 65
   257
 75
     1
175
     1
 42
1.0
 92
        8
 66
     8
424
  8421504
 43
1.0
 76
     1
 77
     6
 78
     2
 67
     7
 79
     5
170
     0
171
     0
290
     0
174
     0
 93
        1
 44
0.0
173
     0
291
     1
 45
0.0
1001
ACAD
1000
AcDbSavedByObjectVersion
1070
     0
  0
VISUALSTYLE
  5
34
102
{ACAD_REACTORS
330
2A
102
}
330
2A
100
AcDbVisualStyle
  2
Conceptual
 70
     9
 71
     3
 72
     2
 73
     0
 90
        0
 40
-0.6
 41
-30.0
 62
     5
 63
     7
421
 16777215
 74
     2
 91
        2
 64
     7
 65
   257
 75
     1
175
     1
 42
40.0
 92
        8
 66
     7
 43
1.0
 76
     1
 77
     6
 78
     2
 67
     7
 79
     3
170
     0
171
     0
290
     0
174
     0
 93
        1
 44
0.0
173
     0
291
     0
 45
0.0
1001
ACAD
1000
AcDbSavedByObjectVersion
1070
     0
  0
VISUALSTYLE
  5
35
102
{ACAD_REACTORS
330
2A
102
}
330
2A
100
AcDbVisualStyle
  2
Dim
 70
    11
 71
     2
 72
     2
 73
     0
 90
        0
 40
-0.6
 41
-30.0
 62
     5
 63
     7
421
 16777215
 74
     1
 91
        4
 64
     7
 65
   257
 75
     1
175
     1
 42
1.0
 92
        8
 66
     7
 43
1.0
 76
     1
 77
     6
 78
     2
 67
     7
 79
     5
170
     0
171
     0
290
     0
174
     0
 93
        1
 44
-50.0
173
     0
291
     1
 45
0.0
1001
ACAD
1000
AcDbSavedByObjectVersion
1070
     0
  0
VISUALSTYLE
  5
39
102
{ACAD_REACTORS
330
2A
102
}
330
2A
100
AcDbVisualStyle
  2
Facepattern
 70
    15
 71
     2
 72
     2
 73
     0
 90
        0
 40
-0.6
 41
-30.0
 62
     5
 63
     7
421
 16777215
 74
     1
 91
        4
 64
     7
 65
   257
 75
     1
175
     1
 42
1.0
 92
        8
 66
     7
 43
1.0
 76
     1
 77
     6
 78
     2
 67
     7
 79
     5
170
     0
171
     0
290
     0
174
     0
 93
        1
 44
0.0
173
     0
291
     1
 45
0.0
1001
ACAD
1000
AcDbSavedByObjectVersion
1070
     0
  0
VISUALSTYLE
  5
2B
102
{ACAD_REACTORS
330
2A
102
}
330
2A
100
AcDbVisualStyle
  2
Flat
 70
     0
 71
     2
 72
     1
 73
     1
 90
        2
 40
-0.6
 41
30.0
 62
     5
 63
     7
421
 16777215
 74
     0
 91
        4
 64
     7
 65
   257
 75
     1
175
     1
 42
1.0
 92
        8
 66
     7
 43
1.0
 76
     1
 77
     6
 78
     2
 67
     7
 79
     5
170
     0
171
     0
290
     0
174
     0
 93
       13
 44
0.0
173
     0
291
     1
 45
0.0
1001
ACAD
1000
AcDbSavedByObjectVersion
1070
     0
  0
VISUALSTYLE
  5
2C
102
{ACAD_REACTORS
330
2A
102
}
330
2A
100
AcDbVisualStyle
  2
FlatWithEdges
 70
     1
 71
     2
 72
     1
 73
     1
 90
        2
 40
-0.6
 41
30.0
 62
     5
 63
     7
421
 16777215
 74
     1
 91
        4
 64
     7
 65
   257
 75
     1
175
     1
 42
1.0
 92
        0
 66
   257
 43
1.0
 76
     1
 77
     6
 78
     2
 67
     7
 79
     5
170
     0
171
     0
290
     0
174
     0
 93
       13
 44
0.0
173
     0
291
     1
 45
0.0
1001
ACAD
1000
AcDbSavedByObjectVersion
1070
     0
  0
VISUALSTYLE
  5
2D
102
{ACAD_REACTORS
330
2A
102
}
330
2A
100
AcDbVisualStyle
  2
Gouraud
 70
     2
 71
     2
 72
     2
 73
     1
 90
        2
 40
-0.6
 41
30.0
 62
     5
 63
     7
421
 16777215
 74
     0
 91
        4
 64
     7
 65
   257
 75
     1
175
     1
 42
1.0
 92
        0
 66
     7
 43
1.0
 76
     1
 77
     6
 78
     2
 67
     7
 79
     5
170
     0
171
     0
290
     0
174
     0
 93
       13
 44
0.0
173
     0
291
     1
 45
0.0
1001
ACAD
1000
AcDbSavedByObjectVersion
1070
     0
  0
VISUALSTYLE
  5
2E
102
{ACAD_REACTORS
330
2A
102
}
330
2A
100
AcDbVisualStyle
  2
GouraudWithEdges
 70
     3
 71
     2
 72
     2
 73
     1
 90
        2
 40
-0.6
 41
30.0
 62
     5
 63
     7
421
 16777215
 74
     1
 91
        4
 64
     7
 65
   257
 75
     1
175
     1
 42
1.0
 92
        0
 66
   257
 43
1.0
 76
     1
 77
     6
 78
     2
 67
     7
 79
     5
170
     0
171
     0
290
     0
174
     0
 93
       13
 44
0.0
173
     0
291
     1
 45
0.0
1001
ACAD
1000
AcDbSavedByObjectVersion
1070
     0
  0
VISUALSTYLE
  5
38
102
{ACAD_REACTORS
330
2A
102
}
330
2A
100
AcDbVisualStyle
  2
Linepattern
 70
    14
 71
     2
 72
     2
 73
     0
 90
        0
 40
-0.6
 41
-30.0
 62
     5
 63
     7
421
 16777215
 74
     1
 91
        4
 64
     7
 65
   257
 75
     7
175
     7
 42
1.0
 92
        8
 66
     7
 43
1.0
 76
     1
 77
     6
 78
     2
 67
     7
 79
     5
170
     0
171
     0
290
     0
174
     0
 93
        1
 44
0.0
173
     0
291
     1
 45
0.0
1001
ACAD
1000
AcDbSavedByObjectVersion
1070
     0
  0
VISUALSTYLE
  5
33
102
{ACAD_REACTORS
330
2A
102
}
330
2A
100
AcDbVisualStyle
  2
Realistic
 70
     8
 71
     2
 72
     2
 73
     0
 90
        0
 40
-0.6
 41
-30.0
 62
     5
 63
     7
421
 16777215
 74
     1
 91
        0
 64
     7
 65
   257
 75
     1
175
     1
 42
1.0
 92
        8
 66
     8
424
  7895160
 43
1.0
 76
     1
 77
     6
 78
     2
 67
     7
 79
     5
170
     0
171
     0
290
     0
174
     0
 93
       13
 44
0.0
173
     0
291
     0
 45
0.0
1001
ACAD
1000
AcDbSavedByObjectVersion
1070
     0
  0
VISUALSTYLE
  5
37
102
{ACAD_REACTORS
330
2A
102
}
330
2A
100
AcDbVisualStyle
  2
Thicken
 70
    13
 71
     2
 72
     2
 73
     0
 90
        0
 40
-0.6
 41
-30.0
 62
     5
 63
     7
421
 16777215
 74
     1
 91
        4
 64
     7
 65
   257
 75
     1
175
     1
 42
1.0
 92
       12
 66
     7
 43
1.0
 76
     1
 77
     6
 78
     2
 67
     7
 79
     5
170
     0
171
     0
290
     0
174
     0
 93
        1
 44
0.0
173
     0
291
     1
 45
0.0
1001
ACAD
1000
AcDbSavedByObjectVersion
1070
     0
  0
DICTIONARYVAR
  5
278
102
{ACAD_REACTORS
330
277
102
}
330
277
100
DictionaryVariables
280
     0
  1
1:1
  0
ENDSEC
  0
EOF
