  0
SECTION
  2
HEADER
  9
$ACADVER
  1
AC1014
  9
$ACADMAINTVER
 70
     9
  9
$DWGCODEPAGE
  3
ANSI_932
  9
$INSBASE
 10
0.0
 20
0.0
 30
0.0
  9
$EXTMIN
 10
-0.5
 20
-0.5
 30
-0.5
  9
$EXTMAX
 10
5.0
 20
5.0
 30
5.0
  9
$LIMMIN
 10
-0.5
 20
-0.5
  9
$LIMMAX
 10
5.0
 20
5.0
  9
$ORTHOMODE
 70
     0
  9
$REGENMODE
 70
     1
  9
$FILLMODE
 70
     1
  9
$QTEXTMODE
 70
     0
  9
$MIRRTEXT
 70
     1
  9
$DRAGMODE
 70
     2
  9
$LTSCALE
 40
1.0
  9
$OSMODE
 70
    37
  9
$ATTMODE
 70
     1
  9
$TEXTSIZE
 40
0.2
  9
$TRACEWID
 40
0.05
  9
$TEXTSTYLE
  7
STANDARD
  9
$CLAYER
  8
0
  9
$CELTYPE
  6
BYLAYER
  9
$CECOLOR
 62
   256
  9
$CELTSCALE
 40
1.0
  9
$DELOBJ
 70
     1
  9
$DISPSILH
 70
     0
  9
$DIMSCALE
 40
1.0
  9
$DIMASZ
 40
0.18
  9
$DIMEXO
 40
0.0625
  9
$DIMDLI
 40
0.38
  9
$DIMRND
 40
0.0
  9
$DIMDLE
 40
0.0
  9
$DIMEXE
 40
0.18
  9
$DIMTP
 40
0.0
  9
$DIMTM
 40
0.0
  9
$DIMTXT
 40
0.18
  9
$DIMCEN
 40
0.09
  9
$DIMTSZ
 40
0.0
  9
$DIMTOL
 70
     0
  9
$DIMLIM
 70
     0
  9
$DIMTIH
 70
     1
  9
$DIMTOH
 70
     1
  9
$DIMSE1
 70
     0
  9
$DIMSE2
 70
     0
  9
$DIMTAD
 70
     0
  9
$DIMZIN
 70
     0
  9
$DIMBLK
  1

  9
$DIMASO
 70
     1
  9
$DIMSHO
 70
     1
  9
$DIMPOST
  1

  9
$DIMAPOST
  1

  9
$DIMALT
 70
     0
  9
$DIMALTD
 70
     2
  9
$DIMALTF
 40
25.4
  9
$DIMLFAC
 40
1.0
  9
$DIMTOFL
 70
     0
  9
$DIMTVP
 40
0.0
  9
$DIMTIX
 70
     0
  9
$DIMSOXD
 70
     0
  9
$DIMSAH
 70
     0
  9
$DIMBLK1
  1

  9
$DIMBLK2
  1

  9
$DIMSTYLE
  2
STANDARD
  9
$DIMCLRD
 70
     0
  9
$DIMCLRE
 70
     0
  9
$DIMCLRT
 70
     0
  9
$DIMTFAC
 40
1.0
  9
$DIMGAP
 40
0.09
  9
$DIMJUST
 70
     0
  9
$DIMSD1
 70
     0
  9
$DIMSD2
 70
     0
  9
$DIMTOLJ
 70
     1
  9
$DIMTZIN
 70
     0
  9
$DIMALTZ
 70
     0
  9
$DIMALTTZ
 70
     0
  9
$DIMFIT
 70
     3
  9
$DIMUPT
 70
     0
  9
$DIMUNIT
 70
     2
  9
$DIMDEC
 70
     4
  9
$DIMTDEC
 70
     4
  9
$DIMALTU
 70
     2
  9
$DIMALTTD
 70
     2
  9
$DIMTXSTY
  7
STANDARD
  9
$DIMAUNIT
 70
     0
  9
$LUNITS
 70
     2
  9
$LUPREC
 70
     4
  9
$SKETCHINC
 40
0.1
  9
$FILLETRAD
 40
0.5
  9
$AUNITS
 70
     0
  9
$AUPREC
 70
     0
  9
$MENU
  1
.
  9
$ELEVATION
 40
0.0
  9
$PELEVATION
 40
0.0
  9
$THICKNESS
 40
0.0
  9
$LIMCHECK
 70
     0
  9
$CHAMFERA
 40
0.5
  9
$CHAMFERB
 40
0.5
  9
$CHAMFERC
 40
1.0
  9
$CHAMFERD
 40
0.0
  9
$SKPOLY
 70
     0
  9
$TDCREATE
 40
2457092.664403843
  9
$TDUPDATE
 40
2457092.664403854
  9
$TDINDWG
 40
0.0000000116
  9
$TDUSRTIMER
 40
0.0000000116
  9
$USRTIMER
 70
     1
  9
$ANGBASE
 50
0.0
  9
$ANGDIR
 70
     0
  9
$PDMODE
 70
     0
  9
$PDSIZE
 40
0.0
  9
$PLINEWID
 40
0.0
  9
$COORDS
 70
     1
  9
$SPLFRAME
 70
     0
  9
$SPLINETYPE
 70
     6
  9
$SPLINESEGS
 70
     8
  9
$ATTDIA
 70
     0
  9
$ATTREQ
 70
     1
  9
$HANDLING
 70
     1
  9
$HANDSEED
  5
1FB
  9
$SURFTAB1
 70
     6
  9
$SURFTAB2
 70
     6
  9
$SURFTYPE
 70
     6
  9
$SURFU
 70
     6
  9
$SURFV
 70
     6
  9
$UCSNAME
  2

  9
$UCSORG
 10
0.0
 20
0.0
 30
0.0
  9
$UCSXDIR
 10
1.0
 20
0.0
 30
0.0
  9
$UCSYDIR
 10
0.0
 20
1.0
 30
0.0
  9
$PUCSNAME
  2

  9
$PUCSORG
 10
0.0
 20
0.0
 30
0.0
  9
$PUCSXDIR
 10
1.0
 20
0.0
 30
0.0
  9
$PUCSYDIR
 10
0.0
 20
1.0
 30
0.0
  9
$USERI1
 70
     0
  9
$USERI2
 70
     0
  9
$USERI3
 70
     0
  9
$USERI4
 70
     0
  9
$USERI5
 70
     0
  9
$USERR1
 40
0.0
  9
$USERR2
 40
0.0
  9
$USERR3
 40
0.0
  9
$USERR4
 40
0.0
  9
$USERR5
 40
0.0
  9
$WORLDVIEW
 70
     1
  9
$SHADEDGE
 70
     3
  9
$SHADEDIF
 70
    70
  9
$TILEMODE
 70
     1
  9
$MAXACTVP
 70
    64
  9
$PINSBASE
 10
0.0
 20
0.0
 30
0.0
  9
$PLIMCHECK
 70
     0
  9
$PEXTMIN
 10
-0.5
 20
-0.5
 30
-0.5
  9
$PEXTMAX
 10
5.0
 20
5.0
 30
5.0
  9
$PLIMMIN
 10
-0.5
 20
-0.5
  9
$PLIMMAX
 10
5.0
 20
5.0
  9
$UNITMODE
 70
     0
  9
$VISRETAIN
 70
     1
  9
$PLINEGEN
 70
     0
  9
$PSLTSCALE
 70
     1
  9
$TREEDEPTH
 70
  3020
  9
$PICKSTYLE
 70
     1
  9
$CMLSTYLE
  2
STANDARD
  9
$CMLJUST
 70
     0
  9
$CMLSCALE
 40
1.0
  9
$PROXYGRAPHICS
 70
     1
  9
$MEASUREMENT
 70
     1
  0
ENDSEC
  0
SECTION
  2
CLASSES
  0
CLASS
  1
ACDBDICTIONARYWDFLT
  2
AcDbDictionaryWithDefault
  3
ObjectDBX Classes
 90
        0
280
     0
281
     0
  0
CLASS
  1
VISUALSTYLE
  2
AcDbVisualStyle
  3
ObjectDBX Classes
 90
     4095
280
     0
281
     0
  0
CLASS
  1
MATERIAL
  2
AcDbMaterial
  3
ObjectDBX Classes
 90
     1153
280
     0
281
     0
  0
CLASS
  1
DICTIONARYVAR
  2
AcDbDictionaryVar
  3
ObjectDBX Classes
 90
        0
280
     0
281
     0
  0
CLASS
  1
XRECORD
  2
AcDbXrecord
  3
AutoCAD 2000
 90
        0
280
     0
281
     0
  0
CLASS
  1
LWPOLYLINE
  2
AcDbPolyline
  3
AutoCAD 2000
 90
        0
280
     0
281
     1
  0
CLASS
  1
HATCH
  2
AcDbHatch
  3
AutoCAD 2000
 90
        0
280
     0
281
     1
  0
CLASS
  1
ACDBPLACEHOLDER
  2
AcDbPlaceHolder
  3
ObjectDBX Classes
 90
        0
280
     0
281
     0
  0
CLASS
  1
LAYOUT
  2
AcDbLayout
  3
ObjectDBX Classes
 90
        0
280
     0
281
     0
  0
ENDSEC
  0
SECTION
  2
TABLES
  0
TABLE
  2
VPORT
  5
8
330
0
100
AcDbSymbolTable
 70
    17
  0
VPORT
  5
29
330
8
100
AcDbSymbolTableRecord
100
AcDbViewportTableRecord
  2
DUMMY
 70
     0
 10
0.0
 20
0.0
 11
1.0
 21
1.0
 12
10.429907
 22
4.5
 13
0.0
 23
0.0
 14
0.5
 24
0.5
 15
0.5
 25
0.5
 16
0.0
 26
0.0
 36
1.0
 17
0.0
 27
0.0
 37
0.0
 40
9.0
 41
1.972973
 42
50.0
 43
0.0
 44
0.0
 50
0.0
 51
0.0
 71
     0
 72
   100
 73
     1
 74
     3
 75
     0
 76
     0
 77
     0
 78
     0
  0
VPORT
  5
1C0
330
8
100
AcDbSymbolTableRecord
100
AcDbViewportTableRecord
  2
*ACTIVE
 70
     0
 10
0.0
 20
0.0
 11
1.0
 21
1.0
 12
159.36075
 22
150.085324
 13
0.0
 23
0.0
 14
0.5
 24
0.5
 15
0.5
 25
0.5
 16
0.0
 26
0.0
 36
1.0
 17
0.0
 27
0.0
 37
0.0
 40
254.0
 41
0.069908
 42
50.0
 43
613.247948
 44
-613.247948
 50
0.0
 51
0.0
 71
     0
 72
   100
 73
     1
 74
     3
 75
     0
 76
     0
 77
     0
 78
     0
  0
VPORT
  5
1C1
330
8
100
AcDbSymbolTableRecord
100
AcDbViewportTableRecord
  2
L1
 70
     0
 10
0.0
 20
0.0
 11
1.0
 21
1.0
 12
159.36075
 22
150.085324
 13
0.0
 23
0.0
 14
0.5
 24
0.5
 15
0.5
 25
0.5
 16
0.0
 26
0.0
 36
1.0
 17
0.0
 27
0.0
 37
0.0
 40
254.0
 41
0.069908
 42
50.0
 43
613.247948
 44
-613.247948
 50
0.0
 51
0.0
 71
     0
 72
   100
 73
     1
 74
     3
 75
     0
 76
     0
 77
     0
 78
     0
  0
VPORT
  5
1C2
330
8
100
AcDbSymbolTableRecord
100
AcDbViewportTableRecord
  2
L2
 70
     0
 10
0.0
 20
0.0
 11
0.5
 21
1.0
 12
0.0
 22
0.0
 13
0.0
 23
0.0
 14
0.5
 24
0.5
 15
0.5
 25
0.5
 16
0.0
 26
-1.0
 36
0.0
 17
0.0
 27
0.0
 37
0.0
 40
1319.822715
 41
0.013454
 42
50.0
 43
672.020833
 44
-672.020833
 50
0.0
 51
0.0
 71
     0
 72
   100
 73
     1
 74
     3
 75
     0
 76
     0
 77
     0
 78
     0
  0
VPORT
  5
1C3
330
8
100
AcDbSymbolTableRecord
100
AcDbViewportTableRecord
  2
L2
 70
     0
 10
0.5
 20
0.0
 11
1.0
 21
1.0
 12
0.0
 22
0.0
 13
0.0
 23
0.0
 14
0.5
 24
0.5
 15
0.5
 25
0.5
 16
1.0
 26
0.0
 36
0.0
 17
0.0
 27
0.0
 37
0.0
 40
1319.822715
 41
0.013454
 42
50.0
 43
672.020833
 44
-672.020833
 50
0.0
 51
0.0
 71
     0
 72
   100
 73
     1
 74
     3
 75
     0
 76
     0
 77
     0
 78
     0
  0
VPORT
  5
1C4
330
8
100
AcDbSymbolTableRecord
100
AcDbViewportTableRecord
  2
L3
 70
     0
 10
0.0
 20
0.5
 11
1.0
 21
1.0
 12
159.36075
 22
150.085324
 13
0.0
 23
0.0
 14
0.5
 24
0.5
 15
0.5
 25
0.5
 16
0.0
 26
0.0
 36
1.0
 17
0.0
 27
0.0
 37
0.0
 40
254.0
 41
0.069908
 42
50.0
 43
613.247948
 44
-613.247948
 50
0.0
 51
0.0
 71
     0
 72
   100
 73
     1
 74
     3
 75
     0
 76
     0
 77
     0
 78
     0
  0
VPORT
  5
1C5
330
8
100
AcDbSymbolTableRecord
100
AcDbViewportTableRecord
  2
L3
 70
     0
 10
0.0
 20
0.0
 11
1.0
 21
0.5
 12
0.0
 22
0.0
 13
0.0
 23
0.0
 14
0.5
 24
0.5
 15
0.5
 25
0.5
 16
0.0
 26
-1.0
 36
0.0
 17
0.0
 27
0.0
 37
0.0
 40
1319.822715
 41
0.013454
 42
50.0
 43
672.020833
 44
-672.020833
 50
0.0
 51
0.0
 71
     0
 72
   100
 73
     1
 74
     3
 75
     0
 76
     0
 77
     0
 78
     0
  0
VPORT
  5
1C6
330
8
100
AcDbSymbolTableRecord
100
AcDbViewportTableRecord
  2
L4
 70
     0
 10
0.0
 20
0.5
 11
0.5
 21
1.0
 12
159.36075
 22
150.085324
 13
0.0
 23
0.0
 14
0.5
 24
0.5
 15
0.5
 25
0.5
 16
0.0
 26
0.0
 36
1.0
 17
0.0
 27
0.0
 37
0.0
 40
254.0
 41
0.069908
 42
50.0
 43
613.247948
 44
-613.247948
 50
0.0
 51
0.0
 71
     0
 72
   100
 73
     1
 74
     3
 75
     0
 76
     0
 77
     0
 78
     0
  0
VPORT
  5
1C7
330
8
100
AcDbSymbolTableRecord
100
AcDbViewportTableRecord
  2
L4
 70
     0
 10
0.0
 20
0.0
 11
0.5
 21
0.5
 12
0.0
 22
0.0
 13
0.0
 23
0.0
 14
0.5
 24
0.5
 15
0.5
 25
0.5
 16
0.0
 26
-1.0
 36
0.0
 17
0.0
 27
0.0
 37
0.0
 40
1319.822715
 41
0.013454
 42
50.0
 43
672.020833
 44
-672.020833
 50
0.0
 51
0.0
 71
     0
 72
   100
 73
     1
 74
     3
 75
     0
 76
     0
 77
     0
 78
     0
  0
VPORT
  5
1C8
330
8
100
AcDbSymbolTableRecord
100
AcDbViewportTableRecord
  2
L4
 70
     0
 10
0.5
 20
0.0
 11
1.0
 21
0.5
 12
0.0
 22
0.0
 13
0.0
 23
0.0
 14
0.5
 24
0.5
 15
0.5
 25
0.5
 16
1.0
 26
0.0
 36
0.0
 17
0.0
 27
0.0
 37
0.0
 40
1319.822715
 41
0.013454
 42
50.0
 43
672.020833
 44
-672.020833
 50
0.0
 51
0.0
 71
     0
 72
   100
 73
     1
 74
     3
 75
     0
 76
     0
 77
     0
 78
     0
  0
VPORT
  5
1C9
330
8
100
AcDbSymbolTableRecord
100
AcDbViewportTableRecord
  2
L4
 70
     0
 10
0.5
 20
0.5
 11
1.0
 21
1.0
 12
0.0
 22
0.0
 13
0.0
 23
0.0
 14
0.5
 24
0.5
 15
0.5
 25
0.5
 16
0.5773502691896258
 26
-0.5773502691896258
 36
0.5773502691896258
 17
0.0
 27
0.0
 37
0.0
 40
1285.020866
 41
0.013818
 42
50.0
 43
667.141407
 44
-667.141407
 50
0.0
 51
0.0
 71
     0
 72
   100
 73
     1
 74
     3
 75
     0
 76
     0
 77
     0
 78
     0
  0
VPORT
  5
1CA
330
8
100
AcDbSymbolTableRecord
100
AcDbViewportTableRecord
  2
L6
 70
     0
 10
0.0
 20
0.5
 11
0.333333
 21
1.0
 12
0.0
 22
0.0
 13
0.0
 23
0.0
 14
0.5
 24
0.5
 15
0.5
 25
0.5
 16
0.7188730927569433
 26
-0.5850486126764433
 36
0.3754192287502549
 17
0.0
 27
0.0
 37
0.0
 40
1357.434192
 41
0.013081
 42
50.0
 43
701.839477
 44
-701.839477
 50
0.0
 51
0.0
 71
     0
 72
   100
 73
     1
 74
     3
 75
     0
 76
     0
 77
     0
 78
     0
  0
VPORT
  5
1CB
330
8
100
AcDbSymbolTableRecord
100
AcDbViewportTableRecord
  2
L6
 70
     0
 10
0.0
 20
0.0
 11
0.333333
 21
0.5
 12
0.0
 22
0.0
 13
0.0
 23
0.0
 14
0.5
 24
0.5
 15
0.5
 25
0.5
 16
-1.0
 26
0.0
 36
0.0
 17
0.0
 27
0.0
 37
0.0
 40
1319.822715
 41
0.013454
 42
50.0
 43
672.020833
 44
-672.020833
 50
0.0
 51
0.0
 71
     0
 72
   100
 73
     1
 74
     3
 75
     0
 76
     0
 77
     0
 78
     0
  0
VPORT
  5
1CC
330
8
100
AcDbSymbolTableRecord
100
AcDbViewportTableRecord
  2
L6
 70
     0
 10
0.333333
 20
0.5
 11
0.666667
 21
1.0
 12
159.36075
 22
150.085324
 13
0.0
 23
0.0
 14
0.5
 24
0.5
 15
0.5
 25
0.5
 16
0.0
 26
0.0
 36
1.0
 17
0.0
 27
0.0
 37
0.0
 40
254.0
 41
0.069908
 42
50.0
 43
613.247948
 44
-613.247948
 50
0.0
 51
0.0
 71
     0
 72
   100
 73
     1
 74
     3
 75
     0
 76
     0
 77
     0
 78
     0
  0
VPORT
  5
1CD
330
8
100
AcDbSymbolTableRecord
100
AcDbViewportTableRecord
  2
L6
 70
     0
 10
0.333333
 20
0.0
 11
0.666667
 21
0.5
 12
0.0
 22
0.0
 13
0.0
 23
0.0
 14
0.5
 24
0.5
 15
0.5
 25
0.5
 16
0.0
 26
-1.0
 36
0.0
 17
0.0
 27
0.0
 37
0.0
 40
1319.822715
 41
0.013454
 42
50.0
 43
672.020833
 44
-672.020833
 50
0.0
 51
0.0
 71
     0
 72
   100
 73
     1
 74
     3
 75
     0
 76
     0
 77
     0
 78
     0
  0
VPORT
  5
1CE
330
8
100
AcDbSymbolTableRecord
100
AcDbViewportTableRecord
  2
L6
 70
     0
 10
0.666667
 20
0.5
 11
1.0
 21
1.0
 12
0.0
 22
0.0
 13
0.0
 23
0.0
 14
0.5
 24
0.5
 15
0.5
 25
0.5
 16
0.5773502691896258
 26
-0.5773502691896258
 36
0.5773502691896258
 17
0.0
 27
0.0
 37
0.0
 40
1285.020866
 41
0.013818
 42
50.0
 43
667.141407
 44
-667.141407
 50
0.0
 51
0.0
 71
     0
 72
   100
 73
     1
 74
     3
 75
     0
 76
     0
 77
     0
 78
     0
  0
VPORT
  5
1CF
330
8
100
AcDbSymbolTableRecord
100
AcDbViewportTableRecord
  2
L6
 70
     0
 10
0.666667
 20
0.0
 11
1.0
 21
0.5
 12
0.0
 22
0.0
 13
0.0
 23
0.0
 14
0.5
 24
0.5
 15
0.5
 25
0.5
 16
1.0
 26
0.0
 36
0.0
 17
0.0
 27
0.0
 37
0.0
 40
1319.822715
 41
0.013454
 42
50.0
 43
672.020833
 44
-672.020833
 50
0.0
 51
0.0
 71
     0
 72
   100
 73
     1
 74
     3
 75
     0
 76
     0
 77
     0
 78
     0
  0
ENDTAB
  0
TABLE
  2
LTYPE
  5
5
330
0
100
AcDbSymbolTable
 70
     7
  0
LTYPE
  5
14
330
5
100
AcDbSymbolTableRecord
100
AcDbLinetypeTableRecord
  2
BYBLOCK
 70
     0
  3

 72
    65
 73
     0
 40
0.0
  0
LTYPE
  5
15
330
5
100
AcDbSymbolTableRecord
100
AcDbLinetypeTableRecord
  2
BYLAYER
 70
     0
  3

 72
    65
 73
     0
 40
0.0
  0
LTYPE
  5
16
330
5
100
AcDbSymbolTableRecord
100
AcDbLinetypeTableRecord
  2
CONTINUOUS
 70
     0
  3
Solid line
 72
    65
 73
     0
 40
0.0
  0
LTYPE
  5
3F
330
5
100
AcDbSymbolTableRecord
100
AcDbLinetypeTableRecord
  2
DASHED
 70
     0
  3
__ __ __ __ __ __ __ __ __
 72
    65
 73
     2
 40
25.72
 49
12.86
 74
     4
 75
     0
340
0
 46
0.0
 50
0.0
 44
0.0
 45
0.0
 49
-12.86
 74
     4
 75
     0
340
0
 46
0.0
 50
0.0
 44
0.0
 45
0.0
  0
LTYPE
  5
40
330
5
100
AcDbSymbolTableRecord
100
AcDbLinetypeTableRecord
  2
HIDDEN
 70
     0
  3
_ _ _ _ _ _ _ _ _ _ _ _ _ _ _
 72
    65
 73
     2
 40
0.5
 49
0.25
 74
     4
 75
     0
340
0
 46
0.0
 50
0.0
 44
0.0
 45
0.0
 49
-0.25
 74
     4
 75
     0
340
0
 46
0.0
 50
0.0
 44
0.0
 45
0.0
  0
LTYPE
  5
41
330
5
100
AcDbSymbolTableRecord
100
AcDbLinetypeTableRecord
  2
PHANTOM
 70
     0
  3
____ _ _ ____ _ _ _____ _ _ ____
 72
    65
 73
     6
 40
50.5
 49
18.0
 74
     4
 75
     0
340
0
 46
0.0
 50
0.0
 44
0.0
 45
0.0
 49
-6.5
 74
     4
 75
     0
340
0
 46
0.0
 50
0.0
 44
0.0
 45
0.0
 49
6.5
 74
     4
 75
     0
340
0
 46
0.0
 50
0.0
 44
0.0
 45
0.0
 49
-6.5
 74
     4
 75
     0
340
0
 46
0.0
 50
0.0
 44
0.0
 45
0.0
 49
6.5
 74
     4
 75
     0
340
0
 46
0.0
 50
0.0
 44
0.0
 45
0.0
 49
-6.5
 74
     4
 75
     0
340
0
 46
0.0
 50
0.0
 44
0.0
 45
0.0
  0
LTYPE
  5
42
330
5
100
AcDbSymbolTableRecord
100
AcDbLinetypeTableRecord
  2
CENTER
 70
     0
  3
____ _ ____ _ ____ _ ____
 72
    65
 73
     4
 40
47.4
 49
22.0
 74
     4
 75
     0
340
0
 46
0.0
 50
0.0
 44
0.0
 45
0.0
 49
-8.5
 74
     4
 75
     0
340
0
 46
0.0
 50
0.0
 44
0.0
 45
0.0
 49
8.5
 74
     4
 75
     0
340
0
 46
0.0
 50
0.0
 44
0.0
 45
0.0
 49
-8.5
 74
     4
 75
     0
340
0
 46
0.0
 50
0.0
 44
0.0
 45
0.0
  0
LTYPE
  5
43
330
5
100
AcDbSymbolTableRecord
100
AcDbLinetypeTableRecord
  2
DOT
 70
     0
  3
.........................
 72
    65
 73
     2
 40
10.0
 49
0.0
 74
     4
 75
     0
340
0
 46
0.0
 50
0.0
 44
0.0
 45
0.0
 49
-10.0
 74
     4
 75
     0
340
0
 46
0.0
 50
0.0
 44
0.0
 45
0.0
  0
LTYPE
  5
44
330
5
100
AcDbSymbolTableRecord
100
AcDbLinetypeTableRecord
  2
DASHDOT
 70
     0
  3
_._._._._._._._._._._._._._._._.
 72
    65
 73
     4
 40
70.0
 49
31.0
 74
     4
 75
     0
340
0
 46
0.0
 50
0.0
 44
0.0
 45
0.0
 49
-13.0
 74
     4
 75
     0
340
0
 46
0.0
 50
0.0
 44
0.0
 45
0.0
 49
13.0
 74
     4
 75
     0
340
0
 46
0.0
 50
0.0
 44
0.0
 45
0.0
 49
-13.0
 74
     4
 75
     0
340
0
 46
0.0
 50
0.0
 44
0.0
 45
0.0
  0
ENDTAB
  0
TABLE
  2
LAYER
  5
2
330
0
100
AcDbSymbolTable
 70
     2
  0
LAYER
  5
10
330
2
100
AcDbSymbolTableRecord
100
AcDbLayerTableRecord
  2
0
 70
     0
 62
     7
  6
CONTINUOUS
  0
LAYER
  5
46
330
2
100
AcDbSymbolTableRecord
100
AcDbLayerTableRecord
  2
1
 70
     0
 62
     7
  6
CONTINUOUS
  0
ENDTAB
  0
TABLE
  2
STYLE
  5
3
330
0
100
AcDbSymbolTable
 70
     4
  0
STYLE
  5
11
330
3
100
AcDbSymbolTableRecord
100
AcDbTextStyleTableRecord
  2
STANDARD
 70
     0
 40
0.0
 41
1.0
 50
0.0
 71
     0
 42
0.2
  3
txt
  4

  0
STYLE
  5
CE
330
3
100
AcDbSymbolTableRecord
100
AcDbTextStyleTableRecord
  2
IDEAS_KANJI
 70
     0
 40
0.0
 41
1.0
 50
0.0
 71
     0
 42
0.2
  3
simplex.shx
  4
bigfont.shx
  0
STYLE
  5
D0
330
3
100
AcDbSymbolTableRecord
100
AcDbTextStyleTableRecord
  2
DWGDIRECTTEXTSTYLE
 70
     0
 40
0.0
 41
1.0
 50
0.0
 71
     0
 42
0.2
  3
simplex
  4

  0
STYLE
  5
196
330
3
100
AcDbSymbolTableRecord
100
AcDbTextStyleTableRecord
  2
IDEAS_SIMPLEX
 70
     0
 40
0.0
 41
1.0
 50
0.0
 71
     0
 42
0.2
  3
simplex.shx
  4

  0
ENDTAB
  0
TABLE
  2
VIEW
  5
6
330
0
100
AcDbSymbolTable
 70
     8
  0
VIEW
  5
1B8
330
6
100
AcDbSymbolTableRecord
100
AcDbViewTableRecord
  2
TOP
 70
     0
 40
254.0
 10
159.36075
 20
150.085324
 41
254.0
 11
0.0
 21
0.0
 31
1.0
 12
0.0
 22
0.0
 32
0.0
 42
50.0
 43
613.247948
 44
-613.247948
 50
0.0
 71
     0
  0
VIEW
  5
1B9
330
6
100
AcDbSymbolTableRecord
100
AcDbViewTableRecord
  2
FRONT
 70
     0
 40
1319.822715
 10
0.0
 20
0.0
 41
254.0
 11
0.0
 21
-1.0
 31
0.0
 12
0.0
 22
0.0
 32
0.0
 42
50.0
 43
672.020833
 44
-672.020833
 50
0.0
 71
     0
  0
VIEW
  5
1BA
330
6
100
AcDbSymbolTableRecord
100
AcDbViewTableRecord
  2
RIGHT
 70
     0
 40
1319.822715
 10
0.0
 20
0.0
 41
254.0
 11
1.0
 21
0.0
 31
0.0
 12
0.0
 22
0.0
 32
0.0
 42
50.0
 43
672.020833
 44
-672.020833
 50
0.0
 71
     0
  0
VIEW
  5
1BB
330
6
100
AcDbSymbolTableRecord
100
AcDbViewTableRecord
  2
BACK
 70
     0
 40
1319.822715
 10
0.0
 20
0.0
 41
254.0
 11
0.0
 21
1.0
 31
0.0
 12
0.0
 22
0.0
 32
0.0
 42
50.0
 43
672.020833
 44
-672.020833
 50
0.0
 71
     0
  0
VIEW
  5
1BC
330
6
100
AcDbSymbolTableRecord
100
AcDbViewTableRecord
  2
BOTTOM
 70
     0
 40
254.0
 10
0.0
 20
0.0
 41
254.0
 11
0.0
 21
0.0
 31
-1.0
 12
0.0
 22
0.0
 32
0.0
 42
50.0
 43
659.911358
 44
-659.911358
 50
180.0
 71
     0
  0
VIEW
  5
1BD
330
6
100
AcDbSymbolTableRecord
100
AcDbViewTableRecord
  2
LEFT
 70
     0
 40
1319.822715
 10
0.0
 20
0.0
 41
254.0
 11
-1.0
 21
0.0
 31
0.0
 12
0.0
 22
0.0
 32
0.0
 42
50.0
 43
672.020833
 44
-672.020833
 50
0.0
 71
     0
  0
VIEW
  5
1BE
330
6
100
AcDbSymbolTableRecord
100
AcDbViewTableRecord
  2
TFR-ISO
 70
     0
 40
1285.020866
 10
0.0
 20
0.0
 41
359.210245
 11
0.5773502691896258
 21
-0.5773502691896258
 31
0.5773502691896258
 12
0.0
 22
0.0
 32
0.0
 42
50.0
 43
667.141407
 44
-667.141407
 50
0.0
 71
     0
  0
VIEW
  5
1BF
330
6
100
AcDbSymbolTableRecord
100
AcDbViewTableRecord
  2
TFR-TRI
 70
     0
 40
1357.434192
 10
0.0
 20
0.0
 41
357.33321
 11
0.7188730927569433
 21
-0.5850486126764433
 31
0.3754192287502549
 12
0.0
 22
0.0
 32
0.0
 42
50.0
 43
701.839477
 44
-701.839477
 50
0.0
 71
     0
  0
ENDTAB
  0
TABLE
  2
UCS
  5
7
330
0
100
AcDbSymbolTable
 70
     0
  0
ENDTAB
  0
TABLE
  2
APPID
  5
9
330
0
100
AcDbSymbolTable
 70
     1
  0
APPID
  5
12
330
9
100
AcDbSymbolTableRecord
100
AcDbRegAppTableRecord
  2
ACAD
 70
     0
  0
ENDTAB
  0
TABLE
  2
DIMSTYLE
  5
A
330
0
100
AcDbSymbolTable
 70
     1
  0
DIMSTYLE
105
27
102
{ACAD_REACTORS
330
D1
330
1A0
330
1AA
330
1B7
102
}
330
A
100
AcDbSymbolTableRecord
100
AcDbDimStyleTableRecord
  2
STANDARD
 70
     0
  3

  4

  5

  6

  7

 40
1.0
 41
0.18
 42
0.0625
 43
0.38
 44
0.18
 45
0.0
 46
0.0
 47
0.0
 48
0.0
140
0.18
141
0.09
142
0.0
143
25.4
144
1.0
145
0.0
146
1.0
147
0.09
 71
     0
 72
     0
 73
     1
 74
     1
 75
     0
 76
     0
 77
     0
 78
     0
170
     0
171
     2
172
     0
173
     0
174
     0
175
     0
176
     0
177
     0
178
     0
270
     2
271
     4
272
     4
273
     2
274
     2
340
11
275
     0
280
     0
281
     0
282
     0
283
     1
284
     0
285
     0
286
     0
287
     3
288
     0
  0
ENDTAB
  0
TABLE
  2
BLOCK_RECORD
  5
1
330
0
100
AcDbSymbolTable
 70
     8
  0
BLOCK_RECORD
  5
1F
330
1
100
AcDbSymbolTableRecord
100
AcDbBlockTableRecord
  2
*MODEL_SPACE
  0
BLOCK_RECORD
  5
1B
330
1
100
AcDbSymbolTableRecord
100
AcDbBlockTableRecord
  2
*PAPER_SPACE
  0
BLOCK_RECORD
  5
D2
330
1
100
AcDbSymbolTableRecord
100
AcDbBlockTableRecord
  2
_OPEN
  0
BLOCK_RECORD
  5
DA
330
1
100
AcDbSymbolTableRecord
100
AcDbBlockTableRecord
  2
CENTERLINE1
  0
BLOCK_RECORD
  5
112
330
1
100
AcDbSymbolTableRecord
100
AcDbBlockTableRecord
  2
CENTERLINE2
  0
BLOCK_RECORD
  5
15C
330
1
100
AcDbSymbolTableRecord
100
AcDbBlockTableRecord
  2
CENTERLINE3
  0
BLOCK_RECORD
  5
194
330
1
100
AcDbSymbolTableRecord
100
AcDbBlockTableRecord
  2
DIMNDRAFT3D1
  0
BLOCK_RECORD
  5
1A1
330
1
100
AcDbSymbolTableRecord
100
AcDbBlockTableRecord
  2
DIMNDRAFT3D2
  0
BLOCK_RECORD
  5
1AB
330
1
100
AcDbSymbolTableRecord
100
AcDbBlockTableRecord
  2
DIMNDRAFT3D3
  0
ENDTAB
  0
ENDSEC
  0
SECTION
  2
BLOCKS
  0
BLOCK
  5
20
330
1F
100
AcDbEntity
  8
0
100
AcDbBlockBegin
  2
*MODEL_SPACE
 70
     0
 10
0.0
 20
0.0
 30
0.0
  3
*MODEL_SPACE
  1

  0
ENDBLK
  5
21
330
1F
100
AcDbEntity
  8
0
100
AcDbBlockEnd
  0
BLOCK
  5
1C
330
1B
100
AcDbEntity
 67
     1
  8
0
100
AcDbBlockBegin
  2
*PAPER_SPACE
 70
     0
 10
0.0
 20
0.0
 30
0.0
  3
*PAPER_SPACE
  1

  0
ENDBLK
  5
1D
330
1B
100
AcDbEntity
 67
     1
  8
0
100
AcDbBlockEnd
  0
BLOCK
  5
D3
330
D2
100
AcDbEntity
  8
0
100
AcDbBlockBegin
  2
_OPEN
 70
     0
 10
0.0
 20
0.0
 30
0.0
  3
_OPEN
  1

  0
LINE
  5
D5
330
D2
100
AcDbEntity
  8
0
  6
BYBLOCK
 62
     0
100
AcDbLine
 10
-1.0
 20
0.166667
 30
0.0
 11
0.0
 21
0.0
 31
0.0
  0
LINE
  5
D6
330
D2
100
AcDbEntity
  8
0
  6
BYBLOCK
 62
     0
100
AcDbLine
 10
-1.0
 20
-0.166667
 30
0.0
 11
0.0
 21
0.0
 31
0.0
  0
LINE
  5
D7
330
D2
100
AcDbEntity
  8
0
  6
BYBLOCK
 62
     0
100
AcDbLine
 10
0.0
 20
0.0
 30
0.0
 11
-1.0
 21
0.0
 31
0.0
  0
ENDBLK
  5
D4
330
D2
100
AcDbEntity
  8
0
100
AcDbBlockEnd
  0
BLOCK
  5
110
330
DA
100
AcDbEntity
  8
0
100
AcDbBlockBegin
  2
CENTERLINE1
 70
     0
 10
0.0
 20
0.0
 30
0.0
  3
CENTERLINE1
  1

  0
LINE
  5
DB
330
DA
100
AcDbEntity
  8
0
  6
CONTINUOUS
 62
     4
100
AcDbLine
 10
191.072287
 20
219.170159
 30
0.0
 11
191.072287
 21
219.970159
 31
0.0
  0
LINE
  5
DC
330
DA
100
AcDbEntity
  8
0
  6
CONTINUOUS
 62
     4
100
AcDbLine
 10
191.072287
 20
206.070159
 30
0.0
 11
191.072287
 21
201.570159
 31
0.0
  0
LINE
  5
DD
330
DA
100
AcDbEntity
  8
0
  6
CONTINUOUS
 62
     4
100
AcDbLine
 10
191.072287
 20
218.670159
 30
0.0
 11
191.072287
 21
214.170159
 31
0.0
  0
LINE
  5
DE
330
DA
100
AcDbEntity
  8
0
  6
CONTINUOUS
 62
     4
100
AcDbLine
 10
191.072287
 20
213.670159
 30
0.0
 11
191.072287
 21
212.870159
 31
0.0
  0
LINE
  5
DF
330
DA
100
AcDbEntity
  8
0
  6
CONTINUOUS
 62
     4
100
AcDbLine
 10
191.072287
 20
212.370159
 30
0.0
 11
191.072287
 21
207.870159
 31
0.0
  0
LINE
  5
E0
330
DA
100
AcDbEntity
  8
0
  6
CONTINUOUS
 62
     4
100
AcDbLine
 10
191.072287
 20
207.370159
 30
0.0
 11
191.072287
 21
206.570159
 31
0.0
  0
LINE
  5
E1
330
DA
100
AcDbEntity
  8
0
  6
CONTINUOUS
 62
     4
100
AcDbLine
 10
191.072287
 20
220.470159
 30
0.0
 11
191.072287
 21
225.407659
 31
0.0
  0
LINE
  5
E2
330
DA
100
AcDbEntity
  8
0
  6
CONTINUOUS
 62
     4
100
AcDbLine
 10
191.072287
 20
225.907659
 30
0.0
 11
191.072287
 21
226.707659
 31
0.0
  0
LINE
  5
E3
330
DA
100
AcDbEntity
  8
0
  6
CONTINUOUS
 62
     4
100
AcDbLine
 10
191.072287
 20
227.207659
 30
0.0
 11
191.072287
 21
232.145159
 31
0.0
  0
LINE
  5
E4
330
DA
100
AcDbEntity
  8
0
  6
CONTINUOUS
 62
     4
100
AcDbLine
 10
191.072287
 20
232.645159
 30
0.0
 11
191.072287
 21
233.445159
 31
0.0
  0
LINE
  5
E5
330
DA
100
AcDbEntity
  8
0
  6
CONTINUOUS
 62
     4
100
AcDbLine
 10
191.072287
 20
233.945159
 30
0.0
 11
191.072287
 21
238.882659
 31
0.0
  0
LINE
  5
E6
330
DA
100
AcDbEntity
  8
0
  6
CONTINUOUS
 62
     4
100
AcDbLine
 10
191.072287
 20
239.382659
 30
0.0
 11
191.072287
 21
240.182659
 31
0.0
  0
LINE
  5
E7
330
DA
100
AcDbEntity
  8
0
  6
CONTINUOUS
 62
     4
100
AcDbLine
 10
191.072287
 20
240.682659
 30
0.0
 11
191.072287
 21
245.620159
 31
0.0
  0
LINE
  5
E8
330
DA
100
AcDbEntity
  8
0
  6
CONTINUOUS
 62
     4
100
AcDbLine
 10
191.072287
 20
246.120159
 30
0.0
 11
191.072287
 21
246.920159
 31
0.0
  0
LINE
  5
E9
330
DA
100
AcDbEntity
  8
0
  6
CONTINUOUS
 62
     4
100
AcDbLine
 10
191.072287
 20
247.420159
 30
0.0
 11
191.072287
 21
252.357659
 31
0.0
  0
LINE
  5
EA
330
DA
100
AcDbEntity
  8
0
  6
CONTINUOUS
 62
     4
100
AcDbLine
 10
191.072287
 20
252.857659
 30
0.0
 11
191.072287
 21
253.657659
 31
0.0
  0
LINE
  5
EB
330
DA
100
AcDbEntity
  8
0
  6
CONTINUOUS
 62
     4
100
AcDbLine
 10
191.072287
 20
254.157659
 30
0.0
 11
191.072287
 21
259.095159
 31
0.0
  0
LINE
  5
EC
330
DA
100
AcDbEntity
  8
0
  6
CONTINUOUS
 62
     4
100
AcDbLine
 10
191.072287
 20
259.595159
 30
0.0
 11
191.072287
 21
260.395159
 31
0.0
  0
LINE
  5
ED
330
DA
100
AcDbEntity
  8
0
  6
CONTINUOUS
 62
     4
100
AcDbLine
 10
191.072287
 20
260.895159
 30
0.0
 11
191.072287
 21
265.832659
 31
0.0
  0
LINE
  5
EE
330
DA
100
AcDbEntity
  8
0
  6
CONTINUOUS
 62
     4
100
AcDbLine
 10
191.072287
 20
266.332659
 30
0.0
 11
191.072287
 21
267.132659
 31
0.0
  0
LINE
  5
EF
330
DA
100
AcDbEntity
  8
0
  6
CONTINUOUS
 62
     4
100
AcDbLine
 10
191.072287
 20
267.632659
 30
0.0
 11
191.072287
 21
272.570159
 31
0.0
  0
LINE
  5
F0
330
DA
100
AcDbEntity
  8
0
  6
CONTINUOUS
 62
     4
100
AcDbLine
 10
143.009787
 20
219.570159
 30
0.0
 11
138.072287
 21
219.570159
 31
0.0
  0
LINE
  5
F1
330
DA
100
AcDbEntity
  8
0
  6
CONTINUOUS
 62
     4
100
AcDbLine
 10
190.172287
 20
219.570159
 30
0.0
 11
185.234787
 21
219.570159
 31
0.0
  0
LINE
  5
F2
330
DA
100
AcDbEntity
  8
0
  6
CONTINUOUS
 62
     4
100
AcDbLine
 10
184.734787
 20
219.570159
 30
0.0
 11
183.934787
 21
219.570159
 31
0.0
  0
LINE
  5
F3
330
DA
100
AcDbEntity
  8
0
  6
CONTINUOUS
 62
     4
100
AcDbLine
 10
183.434787
 20
219.570159
 30
0.0
 11
178.497287
 21
219.570159
 31
0.0
  0
LINE
  5
F4
330
DA
100
AcDbEntity
  8
0
  6
CONTINUOUS
 62
     4
100
AcDbLine
 10
177.997287
 20
219.570159
 30
0.0
 11
177.197287
 21
219.570159
 31
0.0
  0
LINE
  5
F5
330
DA
100
AcDbEntity
  8
0
  6
CONTINUOUS
 62
     4
100
AcDbLine
 10
176.697287
 20
219.570159
 30
0.0
 11
171.759787
 21
219.570159
 31
0.0
  0
LINE
  5
F6
330
DA
100
AcDbEntity
  8
0
  6
CONTINUOUS
 62
     4
100
AcDbLine
 10
171.259787
 20
219.570159
 30
0.0
 11
170.459787
 21
219.570159
 31
0.0
  0
LINE
  5
F7
330
DA
100
AcDbEntity
  8
0
  6
CONTINUOUS
 62
     4
100
AcDbLine
 10
169.959787
 20
219.570159
 30
0.0
 11
165.022287
 21
219.570159
 31
0.0
  0
LINE
  5
F8
330
DA
100
AcDbEntity
  8
0
  6
CONTINUOUS
 62
     4
100
AcDbLine
 10
164.522287
 20
219.570159
 30
0.0
 11
163.722287
 21
219.570159
 31
0.0
  0
LINE
  5
F9
330
DA
100
AcDbEntity
  8
0
  6
CONTINUOUS
 62
     4
100
AcDbLine
 10
163.222287
 20
219.570159
 30
0.0
 11
158.284787
 21
219.570159
 31
0.0
  0
LINE
  5
FA
330
DA
100
AcDbEntity
  8
0
  6
CONTINUOUS
 62
     4
100
AcDbLine
 10
157.784787
 20
219.570159
 30
0.0
 11
156.984787
 21
219.570159
 31
0.0
  0
LINE
  5
FB
330
DA
100
AcDbEntity
  8
0
  6
CONTINUOUS
 62
     4
100
AcDbLine
 10
156.484787
 20
219.570159
 30
0.0
 11
151.547287
 21
219.570159
 31
0.0
  0
LINE
  5
FC
330
DA
100
AcDbEntity
  8
0
  6
CONTINUOUS
 62
     4
100
AcDbLine
 10
151.047287
 20
219.570159
 30
0.0
 11
150.247287
 21
219.570159
 31
0.0
  0
LINE
  5
FD
330
DA
100
AcDbEntity
  8
0
  6
CONTINUOUS
 62
     4
100
AcDbLine
 10
149.747287
 20
219.570159
 30
0.0
 11
144.809787
 21
219.570159
 31
0.0
  0
LINE
  5
FE
330
DA
100
AcDbEntity
  8
0
  6
CONTINUOUS
 62
     4
100
AcDbLine
 10
144.309787
 20
219.570159
 30
0.0
 11
143.509787
 21
219.570159
 31
0.0
  0
LINE
  5
FF
330
DA
100
AcDbEntity
  8
0
  6
CONTINUOUS
 62
     4
100
AcDbLine
 10
190.672287
 20
219.570159
 30
0.0
 11
191.472287
 21
219.570159
 31
0.0
  0
LINE
  5
100
330
DA
100
AcDbEntity
  8
0
  6
CONTINUOUS
 62
     4
100
AcDbLine
 10
191.972287
 20
219.570159
 30
0.0
 11
196.909787
 21
219.570159
 31
0.0
  0
LINE
  5
101
330
DA
100
AcDbEntity
  8
0
  6
CONTINUOUS
 62
     4
100
AcDbLine
 10
197.409787
 20
219.570159
 30
0.0
 11
198.209787
 21
219.570159
 31
0.0
  0
LINE
  5
102
330
DA
100
AcDbEntity
  8
0
  6
CONTINUOUS
 62
     4
100
AcDbLine
 10
198.709787
 20
219.570159
 30
0.0
 11
203.647287
 21
219.570159
 31
0.0
  0
LINE
  5
103
330
DA
100
AcDbEntity
  8
0
  6
CONTINUOUS
 62
     4
100
AcDbLine
 10
204.147287
 20
219.570159
 30
0.0
 11
204.947287
 21
219.570159
 31
0.0
  0
LINE
  5
104
330
DA
100
AcDbEntity
  8
0
  6
CONTINUOUS
 62
     4
100
AcDbLine
 10
205.447287
 20
219.570159
 30
0.0
 11
210.384787
 21
219.570159
 31
0.0
  0
LINE
  5
105
330
DA
100
AcDbEntity
  8
0
  6
CONTINUOUS
 62
     4
100
AcDbLine
 10
210.884787
 20
219.570159
 30
0.0
 11
211.684787
 21
219.570159
 31
0.0
  0
LINE
  5
106
330
DA
100
AcDbEntity
  8
0
  6
CONTINUOUS
 62
     4
100
AcDbLine
 10
212.184787
 20
219.570159
 30
0.0
 11
217.122287
 21
219.570159
 31
0.0
  0
LINE
  5
107
330
DA
100
AcDbEntity
  8
0
  6
CONTINUOUS
 62
     4
100
AcDbLine
 10
217.622287
 20
219.570159
 30
0.0
 11
218.422287
 21
219.570159
 31
0.0
  0
LINE
  5
108
330
DA
100
AcDbEntity
  8
0
  6
CONTINUOUS
 62
     4
100
AcDbLine
 10
218.922287
 20
219.570159
 30
0.0
 11
223.859787
 21
219.570159
 31
0.0
  0
LINE
  5
109
330
DA
100
AcDbEntity
  8
0
  6
CONTINUOUS
 62
     4
100
AcDbLine
 10
224.359787
 20
219.570159
 30
0.0
 11
225.159787
 21
219.570159
 31
0.0
  0
LINE
  5
10A
330
DA
100
AcDbEntity
  8
0
  6
CONTINUOUS
 62
     4
100
AcDbLine
 10
225.659787
 20
219.570159
 30
0.0
 11
230.597287
 21
219.570159
 31
0.0
  0
LINE
  5
10B
330
DA
100
AcDbEntity
  8
0
  6
CONTINUOUS
 62
     4
100
AcDbLine
 10
231.097287
 20
219.570159
 30
0.0
 11
231.897287
 21
219.570159
 31
0.0
  0
LINE
  5
10C
330
DA
100
AcDbEntity
  8
0
  6
CONTINUOUS
 62
     4
100
AcDbLine
 10
232.397287
 20
219.570159
 30
0.0
 11
237.334787
 21
219.570159
 31
0.0
  0
LINE
  5
10D
330
DA
100
AcDbEntity
  8
0
  6
CONTINUOUS
 62
     4
100
AcDbLine
 10
237.834787
 20
219.570159
 30
0.0
 11
238.634787
 21
219.570159
 31
0.0
  0
LINE
  5
10E
330
DA
100
AcDbEntity
  8
0
  6
CONTINUOUS
 62
     4
100
AcDbLine
 10
239.134787
 20
219.570159
 30
0.0
 11
244.072287
 21
219.570159
 31
0.0
  0
ENDBLK
  5
111
330
DA
100
AcDbEntity
  8
0
100
AcDbBlockEnd
  0
BLOCK
  5
15A
330
112
100
AcDbEntity
  8
0
100
AcDbBlockBegin
  2
CENTERLINE2
 70
     0
 10
0.0
 20
0.0
 30
0.0
  3
CENTERLINE2
  1

  0
LINE
  5
113
330
112
100
AcDbEntity
  8
0
  6
CONTINUOUS
 62
     4
100
AcDbLine
 10
191.072287
 20
114.351697
 30
0.0
 11
191.072287
 21
115.151697
 31
0.0
  0
LINE
  5
114
330
112
100
AcDbEntity
  8
0
  6
CONTINUOUS
 62
     4
100
AcDbLine
 10
191.072287
 20
59.27392
 30
0.0
 11
191.072287
 21
54.251697
 31
0.0
  0
LINE
  5
115
330
112
100
AcDbEntity
  8
0
  6
CONTINUOUS
 62
     4
100
AcDbLine
 10
191.072287
 20
113.851697
 30
0.0
 11
191.072287
 21
108.829475
 31
0.0
  0
LINE
  5
116
330
112
100
AcDbEntity
  8
0
  6
CONTINUOUS
 62
     4
100
AcDbLine
 10
191.072287
 20
108.329475
 30
0.0
 11
191.072287
 21
107.529475
 31
0.0
  0
LINE
  5
117
330
112
100
AcDbEntity
  8
0
  6
CONTINUOUS
 62
     4
100
AcDbLine
 10
191.072287
 20
107.029475
 30
0.0
 11
191.072287
 21
102.007253
 31
0.0
  0
LINE
  5
118
330
112
100
AcDbEntity
  8
0
  6
CONTINUOUS
 62
     4
100
AcDbLine
 10
191.072287
 20
101.507253
 30
0.0
 11
191.072287
 21
100.707253
 31
0.0
  0
LINE
  5
119
330
112
100
AcDbEntity
  8
0
  6
CONTINUOUS
 62
     4
100
AcDbLine
 10
191.072287
 20
100.207253
 30
0.0
 11
191.072287
 21
95.185031
 31
0.0
  0
LINE
  5
11A
330
112
100
AcDbEntity
  8
0
  6
CONTINUOUS
 62
     4
100
AcDbLine
 10
191.072287
 20
94.685031
 30
0.0
 11
191.072287
 21
93.885031
 31
0.0
  0
LINE
  5
11B
330
112
100
AcDbEntity
  8
0
  6
CONTINUOUS
 62
     4
100
AcDbLine
 10
191.072287
 20
93.385031
 30
0.0
 11
191.072287
 21
88.362808
 31
0.0
  0
LINE
  5
11C
330
112
100
AcDbEntity
  8
0
  6
CONTINUOUS
 62
     4
100
AcDbLine
 10
191.072287
 20
87.862808
 30
0.0
 11
191.072287
 21
87.062808
 31
0.0
  0
LINE
  5
11D
330
112
100
AcDbEntity
  8
0
  6
CONTINUOUS
 62
     4
100
AcDbLine
 10
191.072287
 20
86.562808
 30
0.0
 11
191.072287
 21
81.540586
 31
0.0
  0
LINE
  5
11E
330
112
100
AcDbEntity
  8
0
  6
CONTINUOUS
 62
     4
100
AcDbLine
 10
191.072287
 20
81.040586
 30
0.0
 11
191.072287
 21
80.240586
 31
0.0
  0
LINE
  5
11F
330
112
100
AcDbEntity
  8
0
  6
CONTINUOUS
 62
     4
100
AcDbLine
 10
191.072287
 20
79.740586
 30
0.0
 11
191.072287
 21
74.718364
 31
0.0
  0
LINE
  5
120
330
112
100
AcDbEntity
  8
0
  6
CONTINUOUS
 62
     4
100
AcDbLine
 10
191.072287
 20
74.218364
 30
0.0
 11
191.072287
 21
73.418364
 31
0.0
  0
LINE
  5
121
330
112
100
AcDbEntity
  8
0
  6
CONTINUOUS
 62
     4
100
AcDbLine
 10
191.072287
 20
72.918364
 30
0.0
 11
191.072287
 21
67.896142
 31
0.0
  0
LINE
  5
122
330
112
100
AcDbEntity
  8
0
  6
CONTINUOUS
 62
     4
100
AcDbLine
 10
191.072287
 20
67.396142
 30
0.0
 11
191.072287
 21
66.596142
 31
0.0
  0
LINE
  5
123
330
112
100
AcDbEntity
  8
0
  6
CONTINUOUS
 62
     4
100
AcDbLine
 10
191.072287
 20
66.096142
 30
0.0
 11
191.072287
 21
61.07392
 31
0.0
  0
LINE
  5
124
330
112
100
AcDbEntity
  8
0
  6
CONTINUOUS
 62
     4
100
AcDbLine
 10
191.072287
 20
60.57392
 30
0.0
 11
191.072287
 21
59.77392
 31
0.0
  0
LINE
  5
125
330
112
100
AcDbEntity
  8
0
  6
CONTINUOUS
 62
     4
100
AcDbLine
 10
191.072287
 20
115.651697
 30
0.0
 11
191.072287
 21
120.67392
 31
0.0
  0
LINE
  5
126
330
112
100
AcDbEntity
  8
0
  6
CONTINUOUS
 62
     4
100
AcDbLine
 10
191.072287
 20
121.17392
 30
0.0
 11
191.072287
 21
121.97392
 31
0.0
  0
LINE
  5
127
330
112
100
AcDbEntity
  8
0
  6
CONTINUOUS
 62
     4
100
AcDbLine
 10
191.072287
 20
122.47392
 30
0.0
 11
191.072287
 21
127.496142
 31
0.0
  0
LINE
  5
128
330
112
100
AcDbEntity
  8
0
  6
CONTINUOUS
 62
     4
100
AcDbLine
 10
191.072287
 20
127.996142
 30
0.0
 11
191.072287
 21
128.796142
 31
0.0
  0
LINE
  5
129
330
112
100
AcDbEntity
  8
0
  6
CONTINUOUS
 62
     4
100
AcDbLine
 10
191.072287
 20
129.296142
 30
0.0
 11
191.072287
 21
134.318364
 31
0.0
  0
LINE
  5
12A
330
112
100
AcDbEntity
  8
0
  6
CONTINUOUS
 62
     4
100
AcDbLine
 10
191.072287
 20
134.818364
 30
0.0
 11
191.072287
 21
135.618364
 31
0.0
  0
LINE
  5
12B
330
112
100
AcDbEntity
  8
0
  6
CONTINUOUS
 62
     4
100
AcDbLine
 10
191.072287
 20
136.118364
 30
0.0
 11
191.072287
 21
141.140586
 31
0.0
  0
LINE
  5
12C
330
112
100
AcDbEntity
  8
0
  6
CONTINUOUS
 62
     4
100
AcDbLine
 10
191.072287
 20
141.640586
 30
0.0
 11
191.072287
 21
142.440586
 31
0.0
  0
LINE
  5
12D
330
112
100
AcDbEntity
  8
0
  6
CONTINUOUS
 62
     4
100
AcDbLine
 10
191.072287
 20
142.940586
 30
0.0
 11
191.072287
 21
147.962808
 31
0.0
  0
LINE
  5
12E
330
112
100
AcDbEntity
  8
0
  6
CONTINUOUS
 62
     4
100
AcDbLine
 10
191.072287
 20
148.462808
 30
0.0
 11
191.072287
 21
149.262808
 31
0.0
  0
LINE
  5
12F
330
112
100
AcDbEntity
  8
0
  6
CONTINUOUS
 62
     4
100
AcDbLine
 10
191.072287
 20
149.762808
 30
0.0
 11
191.072287
 21
154.785031
 31
0.0
  0
LINE
  5
130
330
112
100
AcDbEntity
  8
0
  6
CONTINUOUS
 62
     4
100
AcDbLine
 10
191.072287
 20
155.285031
 30
0.0
 11
191.072287
 21
156.085031
 31
0.0
  0
LINE
  5
131
330
112
100
AcDbEntity
  8
0
  6
CONTINUOUS
 62
     4
100
AcDbLine
 10
191.072287
 20
156.585031
 30
0.0
 11
191.072287
 21
161.607253
 31
0.0
  0
LINE
  5
132
330
112
100
AcDbEntity
  8
0
  6
CONTINUOUS
 62
     4
100
AcDbLine
 10
191.072287
 20
162.107253
 30
0.0
 11
191.072287
 21
162.907253
 31
0.0
  0
LINE
  5
133
330
112
100
AcDbEntity
  8
0
  6
CONTINUOUS
 62
     4
100
AcDbLine
 10
191.072287
 20
163.407253
 30
0.0
 11
191.072287
 21
168.429475
 31
0.0
  0
LINE
  5
134
330
112
100
AcDbEntity
  8
0
  6
CONTINUOUS
 62
     4
100
AcDbLine
 10
191.072287
 20
168.929475
 30
0.0
 11
191.072287
 21
169.729475
 31
0.0
  0
LINE
  5
135
330
112
100
AcDbEntity
  8
0
  6
CONTINUOUS
 62
     4
100
AcDbLine
 10
191.072287
 20
170.229475
 30
0.0
 11
191.072287
 21
175.251697
 31
0.0
  0
LINE
  5
136
330
112
100
AcDbEntity
  8
0
  6
CONTINUOUS
 62
     4
100
AcDbLine
 10
135.594509
 20
114.751697
 30
0.0
 11
130.572287
 21
114.751697
 31
0.0
  0
LINE
  5
137
330
112
100
AcDbEntity
  8
0
  6
CONTINUOUS
 62
     4
100
AcDbLine
 10
190.172287
 20
114.751697
 30
0.0
 11
185.150065
 21
114.751697
 31
0.0
  0
LINE
  5
138
330
112
100
AcDbEntity
  8
0
  6
CONTINUOUS
 62
     4
100
AcDbLine
 10
184.650065
 20
114.751697
 30
0.0
 11
183.850065
 21
114.751697
 31
0.0
  0
LINE
  5
139
330
112
100
AcDbEntity
  8
0
  6
CONTINUOUS
 62
     4
100
AcDbLine
 10
183.350065
 20
114.751697
 30
0.0
 11
178.327842
 21
114.751697
 31
0.0
  0
LINE
  5
13A
330
112
100
AcDbEntity
  8
0
  6
CONTINUOUS
 62
     4
100
AcDbLine
 10
177.827842
 20
114.751697
 30
0.0
 11
177.027842
 21
114.751697
 31
0.0
  0
LINE
  5
13B
330
112
100
AcDbEntity
  8
0
  6
CONTINUOUS
 62
     4
100
AcDbLine
 10
176.527842
 20
114.751697
 30
0.0
 11
171.50562
 21
114.751697
 31
0.0
  0
LINE
  5
13C
330
112
100
AcDbEntity
  8
0
  6
CONTINUOUS
 62
     4
100
AcDbLine
 10
171.00562
 20
114.751697
 30
0.0
 11
170.20562
 21
114.751697
 31
0.0
  0
LINE
  5
13D
330
112
100
AcDbEntity
  8
0
  6
CONTINUOUS
 62
     4
100
AcDbLine
 10
169.70562
 20
114.751697
 30
0.0
 11
164.683398
 21
114.751697
 31
0.0
  0
LINE
  5
13E
330
112
100
AcDbEntity
  8
0
  6
CONTINUOUS
 62
     4
100
AcDbLine
 10
164.183398
 20
114.751697
 30
0.0
 11
163.383398
 21
114.751697
 31
0.0
  0
LINE
  5
13F
330
112
100
AcDbEntity
  8
0
  6
CONTINUOUS
 62
     4
100
AcDbLine
 10
162.883398
 20
114.751697
 30
0.0
 11
157.861176
 21
114.751697
 31
0.0
  0
LINE
  5
140
330
112
100
AcDbEntity
  8
0
  6
CONTINUOUS
 62
     4
100
AcDbLine
 10
157.361176
 20
114.751697
 30
0.0
 11
156.561176
 21
114.751697
 31
0.0
  0
LINE
  5
141
330
112
100
AcDbEntity
  8
0
  6
CONTINUOUS
 62
     4
100
AcDbLine
 10
156.061176
 20
114.751697
 30
0.0
 11
151.038953
 21
114.751697
 31
0.0
  0
LINE
  5
142
330
112
100
AcDbEntity
  8
0
  6
CONTINUOUS
 62
     4
100
AcDbLine
 10
150.538953
 20
114.751697
 30
0.0
 11
149.738953
 21
114.751697
 31
0.0
  0
LINE
  5
143
330
112
100
AcDbEntity
  8
0
  6
CONTINUOUS
 62
     4
100
AcDbLine
 10
149.238953
 20
114.751697
 30
0.0
 11
144.216731
 21
114.751697
 31
0.0
  0
LINE
  5
144
330
112
100
AcDbEntity
  8
0
  6
CONTINUOUS
 62
     4
100
AcDbLine
 10
143.716731
 20
114.751697
 30
0.0
 11
142.916731
 21
114.751697
 31
0.0
  0
LINE
  5
145
330
112
100
AcDbEntity
  8
0
  6
CONTINUOUS
 62
     4
100
AcDbLine
 10
142.416731
 20
114.751697
 30
0.0
 11
137.394509
 21
114.751697
 31
0.0
  0
LINE
  5
146
330
112
100
AcDbEntity
  8
0
  6
CONTINUOUS
 62
     4
100
AcDbLine
 10
136.894509
 20
114.751697
 30
0.0
 11
136.094509
 21
114.751697
 31
0.0
  0
LINE
  5
147
330
112
100
AcDbEntity
  8
0
  6
CONTINUOUS
 62
     4
100
AcDbLine
 10
190.672287
 20
114.751697
 30
0.0
 11
191.472287
 21
114.751697
 31
0.0
  0
LINE
  5
148
330
112
100
AcDbEntity
  8
0
  6
CONTINUOUS
 62
     4
100
AcDbLine
 10
191.972287
 20
114.751697
 30
0.0
 11
196.994509
 21
114.751697
 31
0.0
  0
LINE
  5
149
330
112
100
AcDbEntity
  8
0
  6
CONTINUOUS
 62
     4
100
AcDbLine
 10
197.494509
 20
114.751697
 30
0.0
 11
198.294509
 21
114.751697
 31
0.0
  0
LINE
  5
14A
330
112
100
AcDbEntity
  8
0
  6
CONTINUOUS
 62
     4
100
AcDbLine
 10
198.794509
 20
114.751697
 30
0.0
 11
203.816731
 21
114.751697
 31
0.0
  0
LINE
  5
14B
330
112
100
AcDbEntity
  8
0
  6
CONTINUOUS
 62
     4
100
AcDbLine
 10
204.316731
 20
114.751697
 30
0.0
 11
205.116731
 21
114.751697
 31
0.0
  0
LINE
  5
14C
330
112
100
AcDbEntity
  8
0
  6
CONTINUOUS
 62
     4
100
AcDbLine
 10
205.616731
 20
114.751697
 30
0.0
 11
210.638953
 21
114.751697
 31
0.0
  0
LINE
  5
14D
330
112
100
AcDbEntity
  8
0
  6
CONTINUOUS
 62
     4
100
AcDbLine
 10
211.138953
 20
114.751697
 30
0.0
 11
211.938953
 21
114.751697
 31
0.0
  0
LINE
  5
14E
330
112
100
AcDbEntity
  8
0
  6
CONTINUOUS
 62
     4
100
AcDbLine
 10
212.438953
 20
114.751697
 30
0.0
 11
217.461176
 21
114.751697
 31
0.0
  0
LINE
  5
14F
330
112
100
AcDbEntity
  8
0
  6
CONTINUOUS
 62
     4
100
AcDbLine
 10
217.961176
 20
114.751697
 30
0.0
 11
218.761176
 21
114.751697
 31
0.0
  0
LINE
  5
150
330
112
100
AcDbEntity
  8
0
  6
CONTINUOUS
 62
     4
100
AcDbLine
 10
219.261176
 20
114.751697
 30
0.0
 11
224.283398
 21
114.751697
 31
0.0
  0
LINE
  5
151
330
112
100
AcDbEntity
  8
0
  6
CONTINUOUS
 62
     4
100
AcDbLine
 10
224.783398
 20
114.751697
 30
0.0
 11
225.583398
 21
114.751697
 31
0.0
  0
LINE
  5
152
330
112
100
AcDbEntity
  8
0
  6
CONTINUOUS
 62
     4
100
AcDbLine
 10
226.083398
 20
114.751697
 30
0.0
 11
231.10562
 21
114.751697
 31
0.0
  0
LINE
  5
153
330
112
100
AcDbEntity
  8
0
  6
CONTINUOUS
 62
     4
100
AcDbLine
 10
231.60562
 20
114.751697
 30
0.0
 11
232.40562
 21
114.751697
 31
0.0
  0
LINE
  5
154
330
112
100
AcDbEntity
  8
0
  6
CONTINUOUS
 62
     4
100
AcDbLine
 10
232.90562
 20
114.751697
 30
0.0
 11
237.927842
 21
114.751697
 31
0.0
  0
LINE
  5
155
330
112
100
AcDbEntity
  8
0
  6
CONTINUOUS
 62
     4
100
AcDbLine
 10
238.427842
 20
114.751697
 30
0.0
 11
239.227842
 21
114.751697
 31
0.0
  0
LINE
  5
156
330
112
100
AcDbEntity
  8
0
  6
CONTINUOUS
 62
     4
100
AcDbLine
 10
239.727842
 20
114.751697
 30
0.0
 11
244.750065
 21
114.751697
 31
0.0
  0
LINE
  5
157
330
112
100
AcDbEntity
  8
0
  6
CONTINUOUS
 62
     4
100
AcDbLine
 10
245.250065
 20
114.751697
 30
0.0
 11
246.050065
 21
114.751697
 31
0.0
  0
LINE
  5
158
330
112
100
AcDbEntity
  8
0
  6
CONTINUOUS
 62
     4
100
AcDbLine
 10
246.550065
 20
114.751697
 30
0.0
 11
251.572287
 21
114.751697
 31
0.0
  0
ENDBLK
  5
15B
330
112
100
AcDbEntity
  8
0
100
AcDbBlockEnd
  0
BLOCK
  5
192
330
15C
100
AcDbEntity
  8
0
100
AcDbBlockBegin
  2
CENTERLINE3
 70
     0
 10
0.0
 20
0.0
 30
0.0
  3
CENTERLINE3
  1

  0
LINE
  5
15D
330
15C
100
AcDbEntity
  8
0
  6
CONTINUOUS
 62
     4
100
AcDbLine
 10
91.942662
 20
114.351697
 30
0.0
 11
91.942662
 21
115.151697
 31
0.0
  0
LINE
  5
15E
330
15C
100
AcDbEntity
  8
0
  6
CONTINUOUS
 62
     4
100
AcDbLine
 10
91.942662
 20
66.689197
 30
0.0
 11
91.942662
 21
61.751697
 31
0.0
  0
LINE
  5
15F
330
15C
100
AcDbEntity
  8
0
  6
CONTINUOUS
 62
     4
100
AcDbLine
 10
91.942662
 20
113.851697
 30
0.0
 11
91.942662
 21
108.914197
 31
0.0
  0
LINE
  5
160
330
15C
100
AcDbEntity
  8
0
  6
CONTINUOUS
 62
     4
100
AcDbLine
 10
91.942662
 20
108.414197
 30
0.0
 11
91.942662
 21
107.614197
 31
0.0
  0
LINE
  5
161
330
15C
100
AcDbEntity
  8
0
  6
CONTINUOUS
 62
     4
100
AcDbLine
 10
91.942662
 20
107.114197
 30
0.0
 11
91.942662
 21
102.176697
 31
0.0
  0
LINE
  5
162
330
15C
100
AcDbEntity
  8
0
  6
CONTINUOUS
 62
     4
100
AcDbLine
 10
91.942662
 20
101.676697
 30
0.0
 11
91.942662
 21
100.876697
 31
0.0
  0
LINE
  5
163
330
15C
100
AcDbEntity
  8
0
  6
CONTINUOUS
 62
     4
100
AcDbLine
 10
91.942662
 20
100.376697
 30
0.0
 11
91.942662
 21
95.439197
 31
0.0
  0
LINE
  5
164
330
15C
100
AcDbEntity
  8
0
  6
CONTINUOUS
 62
     4
100
AcDbLine
 10
91.942662
 20
94.939197
 30
0.0
 11
91.942662
 21
94.139197
 31
0.0
  0
LINE
  5
165
330
15C
100
AcDbEntity
  8
0
  6
CONTINUOUS
 62
     4
100
AcDbLine
 10
91.942662
 20
93.639197
 30
0.0
 11
91.942662
 21
88.701697
 31
0.0
  0
LINE
  5
166
330
15C
100
AcDbEntity
  8
0
  6
CONTINUOUS
 62
     4
100
AcDbLine
 10
91.942662
 20
88.201697
 30
0.0
 11
91.942662
 21
87.401697
 31
0.0
  0
LINE
  5
167
330
15C
100
AcDbEntity
  8
0
  6
CONTINUOUS
 62
     4
100
AcDbLine
 10
91.942662
 20
86.901697
 30
0.0
 11
91.942662
 21
81.964197
 31
0.0
  0
LINE
  5
168
330
15C
100
AcDbEntity
  8
0
  6
CONTINUOUS
 62
     4
100
AcDbLine
 10
91.942662
 20
81.464197
 30
0.0
 11
91.942662
 21
80.664197
 31
0.0
  0
LINE
  5
169
330
15C
100
AcDbEntity
  8
0
  6
CONTINUOUS
 62
     4
100
AcDbLine
 10
91.942662
 20
80.164197
 30
0.0
 11
91.942662
 21
75.226697
 31
0.0
  0
LINE
  5
16A
330
15C
100
AcDbEntity
  8
0
  6
CONTINUOUS
 62
     4
100
AcDbLine
 10
91.942662
 20
74.726697
 30
0.0
 11
91.942662
 21
73.926697
 31
0.0
  0
LINE
  5
16B
330
15C
100
AcDbEntity
  8
0
  6
CONTINUOUS
 62
     4
100
AcDbLine
 10
91.942662
 20
73.426697
 30
0.0
 11
91.942662
 21
68.489197
 31
0.0
  0
LINE
  5
16C
330
15C
100
AcDbEntity
  8
0
  6
CONTINUOUS
 62
     4
100
AcDbLine
 10
91.942662
 20
67.989197
 30
0.0
 11
91.942662
 21
67.189197
 31
0.0
  0
LINE
  5
16D
330
15C
100
AcDbEntity
  8
0
  6
CONTINUOUS
 62
     4
100
AcDbLine
 10
91.942662
 20
115.651697
 30
0.0
 11
91.942662
 21
120.589197
 31
0.0
  0
LINE
  5
16E
330
15C
100
AcDbEntity
  8
0
  6
CONTINUOUS
 62
     4
100
AcDbLine
 10
91.942662
 20
121.089197
 30
0.0
 11
91.942662
 21
121.889197
 31
0.0
  0
LINE
  5
16F
330
15C
100
AcDbEntity
  8
0
  6
CONTINUOUS
 62
     4
100
AcDbLine
 10
91.942662
 20
122.389197
 30
0.0
 11
91.942662
 21
127.326697
 31
0.0
  0
LINE
  5
170
330
15C
100
AcDbEntity
  8
0
  6
CONTINUOUS
 62
     4
100
AcDbLine
 10
91.942662
 20
127.826697
 30
0.0
 11
91.942662
 21
128.626697
 31
0.0
  0
LINE
  5
171
330
15C
100
AcDbEntity
  8
0
  6
CONTINUOUS
 62
     4
100
AcDbLine
 10
91.942662
 20
129.126697
 30
0.0
 11
91.942662
 21
134.064197
 31
0.0
  0
LINE
  5
172
330
15C
100
AcDbEntity
  8
0
  6
CONTINUOUS
 62
     4
100
AcDbLine
 10
91.942662
 20
134.564197
 30
0.0
 11
91.942662
 21
135.364197
 31
0.0
  0
LINE
  5
173
330
15C
100
AcDbEntity
  8
0
  6
CONTINUOUS
 62
     4
100
AcDbLine
 10
91.942662
 20
135.864197
 30
0.0
 11
91.942662
 21
140.801697
 31
0.0
  0
LINE
  5
174
330
15C
100
AcDbEntity
  8
0
  6
CONTINUOUS
 62
     4
100
AcDbLine
 10
91.942662
 20
141.301697
 30
0.0
 11
91.942662
 21
142.101697
 31
0.0
  0
LINE
  5
175
330
15C
100
AcDbEntity
  8
0
  6
CONTINUOUS
 62
     4
100
AcDbLine
 10
91.942662
 20
142.601697
 30
0.0
 11
91.942662
 21
147.539197
 31
0.0
  0
LINE
  5
176
330
15C
100
AcDbEntity
  8
0
  6
CONTINUOUS
 62
     4
100
AcDbLine
 10
91.942662
 20
148.039197
 30
0.0
 11
91.942662
 21
148.839197
 31
0.0
  0
LINE
  5
177
330
15C
100
AcDbEntity
  8
0
  6
CONTINUOUS
 62
     4
100
AcDbLine
 10
91.942662
 20
149.339197
 30
0.0
 11
91.942662
 21
154.276697
 31
0.0
  0
LINE
  5
178
330
15C
100
AcDbEntity
  8
0
  6
CONTINUOUS
 62
     4
100
AcDbLine
 10
91.942662
 20
154.776697
 30
0.0
 11
91.942662
 21
155.576697
 31
0.0
  0
LINE
  5
179
330
15C
100
AcDbEntity
  8
0
  6
CONTINUOUS
 62
     4
100
AcDbLine
 10
91.942662
 20
156.076697
 30
0.0
 11
91.942662
 21
161.014197
 31
0.0
  0
LINE
  5
17A
330
15C
100
AcDbEntity
  8
0
  6
CONTINUOUS
 62
     4
100
AcDbLine
 10
91.942662
 20
161.514197
 30
0.0
 11
91.942662
 21
162.314197
 31
0.0
  0
LINE
  5
17B
330
15C
100
AcDbEntity
  8
0
  6
CONTINUOUS
 62
     4
100
AcDbLine
 10
91.942662
 20
162.814197
 30
0.0
 11
91.942662
 21
167.751697
 31
0.0
  0
LINE
  5
17C
330
15C
100
AcDbEntity
  8
0
  6
CONTINUOUS
 62
     4
100
AcDbLine
 10
43.880162
 20
114.751697
 30
0.0
 11
38.942662
 21
114.751697
 31
0.0
  0
LINE
  5
17D
330
15C
100
AcDbEntity
  8
0
  6
CONTINUOUS
 62
     4
100
AcDbLine
 10
91.042662
 20
114.751697
 30
0.0
 11
86.105162
 21
114.751697
 31
0.0
  0
LINE
  5
17E
330
15C
100
AcDbEntity
  8
0
  6
CONTINUOUS
 62
     4
100
AcDbLine
 10
85.605162
 20
114.751697
 30
0.0
 11
84.805162
 21
114.751697
 31
0.0
  0
LINE
  5
17F
330
15C
100
AcDbEntity
  8
0
  6
CONTINUOUS
 62
     4
100
AcDbLine
 10
84.305162
 20
114.751697
 30
0.0
 11
79.367662
 21
114.751697
 31
0.0
  0
LINE
  5
180
330
15C
100
AcDbEntity
  8
0
  6
CONTINUOUS
 62
     4
100
AcDbLine
 10
78.867662
 20
114.751697
 30
0.0
 11
78.067662
 21
114.751697
 31
0.0
  0
LINE
  5
181
330
15C
100
AcDbEntity
  8
0
  6
CONTINUOUS
 62
     4
100
AcDbLine
 10
77.567662
 20
114.751697
 30
0.0
 11
72.630162
 21
114.751697
 31
0.0
  0
LINE
  5
182
330
15C
100
AcDbEntity
  8
0
  6
CONTINUOUS
 62
     4
100
AcDbLine
 10
72.130162
 20
114.751697
 30
0.0
 11
71.330162
 21
114.751697
 31
0.0
  0
LINE
  5
183
330
15C
100
AcDbEntity
  8
0
  6
CONTINUOUS
 62
     4
100
AcDbLine
 10
70.830162
 20
114.751697
 30
0.0
 11
65.892662
 21
114.751697
 31
0.0
  0
LINE
  5
184
330
15C
100
AcDbEntity
  8
0
  6
CONTINUOUS
 62
     4
100
AcDbLine
 10
65.392662
 20
114.751697
 30
0.0
 11
64.592662
 21
114.751697
 31
0.0
  0
LINE
  5
185
330
15C
100
AcDbEntity
  8
0
  6
CONTINUOUS
 62
     4
100
AcDbLine
 10
64.092662
 20
114.751697
 30
0.0
 11
59.155162
 21
114.751697
 31
0.0
  0
LINE
  5
186
330
15C
100
AcDbEntity
  8
0
  6
CONTINUOUS
 62
     4
100
AcDbLine
 10
58.655162
 20
114.751697
 30
0.0
 11
57.855162
 21
114.751697
 31
0.0
  0
LINE
  5
187
330
15C
100
AcDbEntity
  8
0
  6
CONTINUOUS
 62
     4
100
AcDbLine
 10
57.355162
 20
114.751697
 30
0.0
 11
52.417662
 21
114.751697
 31
0.0
  0
LINE
  5
188
330
15C
100
AcDbEntity
  8
0
  6
CONTINUOUS
 62
     4
100
AcDbLine
 10
51.917662
 20
114.751697
 30
0.0
 11
51.117662
 21
114.751697
 31
0.0
  0
LINE
  5
189
330
15C
100
AcDbEntity
  8
0
  6
CONTINUOUS
 62
     4
100
AcDbLine
 10
50.617662
 20
114.751697
 30
0.0
 11
45.680162
 21
114.751697
 31
0.0
  0
LINE
  5
18A
330
15C
100
AcDbEntity
  8
0
  6
CONTINUOUS
 62
     4
100
AcDbLine
 10
45.180162
 20
114.751697
 30
0.0
 11
44.380162
 21
114.751697
 31
0.0
  0
LINE
  5
18B
330
15C
100
AcDbEntity
  8
0
  6
CONTINUOUS
 62
     4
100
AcDbLine
 10
91.542662
 20
114.751697
 30
0.0
 11
92.342662
 21
114.751697
 31
0.0
  0
LINE
  5
18C
330
15C
100
AcDbEntity
  8
0
  6
CONTINUOUS
 62
     4
100
AcDbLine
 10
92.842662
 20
114.751697
 30
0.0
 11
97.342662
 21
114.751697
 31
0.0
  0
LINE
  5
18D
330
15C
100
AcDbEntity
  8
0
  6
CONTINUOUS
 62
     4
100
AcDbLine
 10
97.842662
 20
114.751697
 30
0.0
 11
98.642662
 21
114.751697
 31
0.0
  0
LINE
  5
18E
330
15C
100
AcDbEntity
  8
0
  6
CONTINUOUS
 62
     4
100
AcDbLine
 10
99.142662
 20
114.751697
 30
0.0
 11
103.642662
 21
114.751697
 31
0.0
  0
LINE
  5
18F
330
15C
100
AcDbEntity
  8
0
  6
CONTINUOUS
 62
     4
100
AcDbLine
 10
104.142662
 20
114.751697
 30
0.0
 11
104.942662
 21
114.751697
 31
0.0
  0
LINE
  5
190
330
15C
100
AcDbEntity
  8
0
  6
CONTINUOUS
 62
     4
100
AcDbLine
 10
105.442662
 20
114.751697
 30
0.0
 11
109.942662
 21
114.751697
 31
0.0
  0
ENDBLK
  5
193
330
15C
100
AcDbEntity
  8
0
100
AcDbBlockEnd
  0
BLOCK
  5
19E
330
194
100
AcDbEntity
  8
0
100
AcDbBlockBegin
  2
DIMNDRAFT3D1
 70
     0
 10
0.0
 20
0.0
 30
0.0
  3
DIMNDRAFT3D1
  1

  0
MTEXT
  5
195
330
194
100
AcDbEntity
  8
1
  6
CONTINUOUS
 62
     4
100
AcDbMText
 10
236.878945
 20
156.759377
 30
0.0
 40
2.5
 41
0.0
 71
     7
 72
     5
  1
\W01.000;\W00.956;115 
  7
IDEAS_SIMPLEX
 11
0.7415224614538076
 21
0.6709280432054442
 31
0.0
1001
ACAD
1000
MTEXTBEGIN
1070
    73
1070
     2
1070
    44
1040
0.722892
1000
MTEXTEND
1000
ACAD_MTEXT_DEFINED_HEIGHT_BEGIN
1070
    46
1040
0.2
1000
ACAD_MTEXT_DEFINED_HEIGHT_END
  0
MTEXT
  5
197
330
194
100
AcDbEntity
  8
1
  6
CONTINUOUS
 62
     4
100
AcDbMText
 10
241.272968
 20
160.771333
 30
0.0
 40
2.5
 41
0.0
 71
     7
 72
     5
  1
\W01.000;\W00.804;(%%c4.53) 
  7
IDEAS_KANJI
 11
0.7415224614538076
 21
0.6709280432054442
 31
0.0
1001
ACAD
1000
MTEXTBEGIN
1070
    73
1070
     2
1070
    44
1040
0.722892
1000
MTEXTEND
1000
ACAD_MTEXT_DEFINED_HEIGHT_BEGIN
1070
    46
1040
0.2
1000
ACAD_MTEXT_DEFINED_HEIGHT_END
  0
MTEXT
  5
198
330
194
100
AcDbEntity
  8
1
  6
CONTINUOUS
 62
     4
100
AcDbMText
 10
233.171333
 20
153.404737
 30
0.0
 40
2.5
 41
0.0
 71
     7
 72
     5
  1
\W01.000;%%c 
  7
IDEAS_SIMPLEX
 11
0.7415224614538076
 21
0.6709280432054442
 31
0.0
1001
ACAD
1000
MTEXTBEGIN
1070
    73
1070
     2
1070
    44
1040
0.722892
1000
MTEXTEND
1000
ACAD_MTEXT_DEFINED_HEIGHT_BEGIN
1070
    46
1040
0.2
1000
ACAD_MTEXT_DEFINED_HEIGHT_END
  0
LINE
  5
199
330
194
100
AcDbEntity
  8
1
  6
CONTINUOUS
 62
     4
100
AcDbLine
 10
148.434745
 20
76.173335
 30
0.0
 11
251.785029
 21
169.684465
 31
0.0
  0
LINE
  5
19A
330
194
100
AcDbEntity
  8
1
  6
CONTINUOUS
 62
     4
100
AcDbLine
 10
233.709828
 20
153.33006
 30
0.0
 11
232.586334
 21
151.590824
 31
0.0
  0
LINE
  5
19B
330
194
100
AcDbEntity
  8
1
  6
CONTINUOUS
 62
     4
100
AcDbLine
 10
233.709828
 20
153.33006
 30
0.0
 11
231.867233
 21
152.385583
 31
0.0
  0
LINE
  5
19C
330
194
100
AcDbEntity
  8
1
  6
CONTINUOUS
 62
     4
100
AcDbLine
 10
148.434745
 20
76.173335
 30
0.0
 11
149.558239
 21
77.91257
 31
0.0
  0
LINE
  5
19D
330
194
100
AcDbEntity
  8
1
  6
CONTINUOUS
 62
     4
100
AcDbLine
 10
148.434745
 20
76.173335
 30
0.0
 11
150.277341
 21
77.117812
 31
0.0
  0
ENDBLK
  5
19F
330
194
100
AcDbEntity
  8
0
100
AcDbBlockEnd
  0
BLOCK
  5
1A8
330
1A1
100
AcDbEntity
  8
0
100
AcDbBlockBegin
  2
DIMNDRAFT3D2
 70
     0
 10
0.0
 20
0.0
 30
0.0
  3
DIMNDRAFT3D2
  1

  0
MTEXT
  5
1A2
330
1A1
100
AcDbEntity
  8
1
  6
CONTINUOUS
 62
     4
100
AcDbMText
 10
149.700583
 20
270.037984
 30
0.0
 40
2.5
 41
0.0
 71
     7
 72
     5
  1
\W01.000;\W00.809;50 
  7
IDEAS_SIMPLEX
 11
0.6314982992605492
 21
-0.7753772617449095
 31
0.0
1001
ACAD
1000
MTEXTBEGIN
1070
    73
1070
     2
1070
    44
1040
0.722892
1000
MTEXTEND
1000
ACAD_MTEXT_DEFINED_HEIGHT_BEGIN
1070
    46
1040
0.2
1000
ACAD_MTEXT_DEFINED_HEIGHT_END
  0
MTEXT
  5
1A3
330
1A1
100
AcDbEntity
  8
1
  6
CONTINUOUS
 62
     4
100
AcDbMText
 10
152.200057
 20
267.011604
 30
0.0
 40
2.5
 41
0.0
 71
     7
 72
     5
  1
\W01.000;\W00.686;(R1.97) 
  7
IDEAS_KANJI
 11
0.6314982992605492
 21
-0.7753772617449095
 31
0.0
1001
ACAD
1000
MTEXTBEGIN
1070
    73
1070
     2
1070
    44
1040
0.722892
1000
MTEXTEND
1000
ACAD_MTEXT_DEFINED_HEIGHT_BEGIN
1070
    46
1040
0.2
1000
ACAD_MTEXT_DEFINED_HEIGHT_END
  0
MTEXT
  5
1A4
330
1A1
100
AcDbEntity
  8
1
  6
CONTINUOUS
 62
     4
100
AcDbMText
 10
148.579673
 20
271.414278
 30
0.0
 40
2.5
 41
0.0
 71
     7
 72
     5
  1
\W01.000;\W00.715;R 
  7
IDEAS_SIMPLEX
 11
0.6314982992605492
 21
-0.7753772617449095
 31
0.0
1001
ACAD
1000
MTEXTBEGIN
1070
    73
1070
     2
1070
    44
1040
0.722892
1000
MTEXTEND
1000
ACAD_MTEXT_DEFINED_HEIGHT_BEGIN
1070
    46
1040
0.2
1000
ACAD_MTEXT_DEFINED_HEIGHT_END
  0
LINE
  5
1A5
330
1A1
100
AcDbEntity
  8
1
  6
CONTINUOUS
 62
     4
100
AcDbLine
 10
191.072287
 20
219.570159
 30
0.0
 11
148.425461
 21
271.933529
 31
0.0
  0
LINE
  5
1A6
330
1A1
100
AcDbEntity
  8
1
  6
CONTINUOUS
 62
     4
100
AcDbLine
 10
159.497372
 20
258.339022
 30
0.0
 11
161.175891
 21
257.126688
 31
0.0
  0
LINE
  5
1A7
330
1A1
100
AcDbEntity
  8
1
  6
CONTINUOUS
 62
     4
100
AcDbLine
 10
159.497372
 20
258.339022
 30
0.0
 11
160.344846
 21
256.449847
 31
0.0
  0
ENDBLK
  5
1A9
330
1A1
100
AcDbEntity
  8
0
100
AcDbBlockEnd
  0
BLOCK
  5
1B5
330
1AB
100
AcDbEntity
  8
0
100
AcDbBlockBegin
  2
DIMNDRAFT3D3
 70
     0
 10
0.0
 20
0.0
 30
0.0
  3
DIMNDRAFT3D3
  1

  0
MTEXT
  5
1AC
330
1AB
100
AcDbEntity
  8
1
  6
CONTINUOUS
 62
     4
100
AcDbMText
 10
258.559167
 20
231.345159
 30
0.0
 40
2.5
 41
0.0
 71
     7
 72
     5
  1
\W01.000;\W00.809;65 
  7
IDEAS_SIMPLEX
 11
6.123233995736766E-17
 21
1.0
 31
0.0
1001
ACAD
1000
MTEXTBEGIN
1070
    73
1070
     2
1070
    44
1040
0.722892
1000
MTEXTEND
1000
ACAD_MTEXT_DEFINED_HEIGHT_BEGIN
1070
    46
1040
0.2
1000
ACAD_MTEXT_DEFINED_HEIGHT_END
  0
MTEXT
  5
1AD
330
1AB
100
AcDbEntity
  8
1
  6
CONTINUOUS
 62
     4
100
AcDbMText
 10
258.532285
 20
235.270159
 30
0.0
 40
2.5
 41
0.0
 71
     7
 72
     5
  1
\W01.000;\W00.687;(2.56) 
  7
IDEAS_KANJI
 11
6.123233995736766E-17
 21
1.0
 31
0.0
1001
ACAD
1000
MTEXTBEGIN
1070
    73
1070
     2
1070
    44
1040
0.722892
1000
MTEXTEND
1000
ACAD_MTEXT_DEFINED_HEIGHT_BEGIN
1070
    46
1040
0.2
1000
ACAD_MTEXT_DEFINED_HEIGHT_END
  0
LINE
  5
1AE
330
1AB
100
AcDbEntity
  8
1
  6
CONTINUOUS
 62
     4
100
AcDbLine
 10
191.072287
 20
269.570159
 30
0.0
 11
259.850833
 21
269.570159
 31
0.0
  0
LINE
  5
1AF
330
1AB
100
AcDbEntity
  8
1
  6
CONTINUOUS
 62
     4
100
AcDbLine
 10
191.072287
 20
205.070159
 30
0.0
 11
259.850833
 21
205.070159
 31
0.0
  0
LINE
  5
1B0
330
1AB
100
AcDbEntity
  8
1
  6
CONTINUOUS
 62
     4
100
AcDbLine
 10
258.350833
 20
269.570159
 30
0.0
 11
258.350833
 21
205.070159
 31
0.0
  0
LINE
  5
1B1
330
1AB
100
AcDbEntity
  8
1
  6
CONTINUOUS
 62
     4
100
AcDbLine
 10
258.350833
 20
269.570159
 30
0.0
 11
258.886732
 21
267.570161
 31
0.0
  0
LINE
  5
1B2
330
1AB
100
AcDbEntity
  8
1
  6
CONTINUOUS
 62
     4
100
AcDbLine
 10
258.350833
 20
269.570159
 30
0.0
 11
257.814935
 21
267.570157
 31
0.0
  0
LINE
  5
1B3
330
1AB
100
AcDbEntity
  8
1
  6
CONTINUOUS
 62
     4
100
AcDbLine
 10
258.350833
 20
205.070159
 30
0.0
 11
257.814935
 21
207.070157
 31
0.0
  0
LINE
  5
1B4
330
1AB
100
AcDbEntity
  8
1
  6
CONTINUOUS
 62
     4
100
AcDbLine
 10
258.350833
 20
205.070159
 30
0.0
 11
258.886732
 21
207.070161
 31
0.0
  0
ENDBLK
  5
1B6
330
1AB
100
AcDbEntity
  8
0
100
AcDbBlockEnd
  0
ENDSEC
  0
SECTION
  2
ENTITIES
  0
LINE
  5
45
330
1F
100
AcDbEntity
  8
1
  6
CONTINUOUS
 62
   251
100
AcDbLine
 10
35.592412
 20
50.901697
 30
0.0
 11
35.592412
 21
178.601697
 31
0.0
  0
LINE
  5
47
330
1F
100
AcDbEntity
  8
1
  6
CONTINUOUS
 62
   251
100
AcDbLine
 10
112.792687
 20
178.601697
 30
0.0
 11
35.592412
 21
178.601697
 31
0.0
  0
LINE
  5
48
330
1F
100
AcDbEntity
  8
1
  6
CONTINUOUS
 62
   251
100
AcDbLine
 10
112.792687
 20
178.601697
 30
0.0
 11
112.792687
 21
50.901697
 31
0.0
  0
LINE
  5
49
330
1F
100
AcDbEntity
  8
1
  6
CONTINUOUS
 62
   251
100
AcDbLine
 10
35.592412
 20
50.901697
 30
0.0
 11
112.792687
 21
50.901697
 31
0.0
  0
LINE
  5
4A
330
1F
100
AcDbEntity
  8
1
  6
CONTINUOUS
 62
   251
100
AcDbLine
 10
127.222287
 20
50.901697
 30
0.0
 11
127.222287
 21
178.601697
 31
0.0
  0
LINE
  5
4B
330
1F
100
AcDbEntity
  8
1
  6
CONTINUOUS
 62
   251
100
AcDbLine
 10
254.922287
 20
178.601697
 30
0.0
 11
127.222287
 21
178.601697
 31
0.0
  0
LINE
  5
4C
330
1F
100
AcDbEntity
  8
1
  6
CONTINUOUS
 62
   251
100
AcDbLine
 10
254.922287
 20
178.601697
 30
0.0
 11
254.922287
 21
50.901697
 31
0.0
  0
LINE
  5
4D
330
1F
100
AcDbEntity
  8
1
  6
CONTINUOUS
 62
   251
100
AcDbLine
 10
127.222287
 20
50.901697
 30
0.0
 11
254.922287
 21
50.901697
 31
0.0
  0
LINE
  5
4E
330
1F
100
AcDbEntity
  8
1
  6
CONTINUOUS
 62
   251
100
AcDbLine
 10
127.222287
 20
198.720134
 30
0.0
 11
127.222287
 21
275.920409
 31
0.0
  0
LINE
  5
4F
330
1F
100
AcDbEntity
  8
1
  6
CONTINUOUS
 62
   251
100
AcDbLine
 10
254.922287
 20
275.920409
 30
0.0
 11
127.222287
 21
275.920409
 31
0.0
  0
LINE
  5
50
330
1F
100
AcDbEntity
  8
1
  6
CONTINUOUS
 62
   251
100
AcDbLine
 10
254.922287
 20
275.920409
 30
0.0
 11
254.922287
 21
198.720134
 31
0.0
  0
LINE
  5
51
330
1F
100
AcDbEntity
  8
1
  6
CONTINUOUS
 62
   251
100
AcDbLine
 10
127.222287
 20
198.720134
 30
0.0
 11
254.922287
 21
198.720134
 31
0.0
  0
LINE
  5
52
330
1F
100
AcDbEntity
  8
1
  6
CONTINUOUS
 62
   251
 60
     1
100
AcDbLine
 10
0.0
 20
0.0
 30
0.0
 11
0.0
 21
297.0
 31
0.0
  0
LINE
  5
53
330
1F
100
AcDbEntity
  8
1
  6
CONTINUOUS
 62
   251
 60
     1
100
AcDbLine
 10
420.0
 20
297.0
 30
0.0
 11
0.0
 21
297.0
 31
0.0
  0
LINE
  5
54
330
1F
100
AcDbEntity
  8
1
  6
CONTINUOUS
 62
   251
 60
     1
100
AcDbLine
 10
420.0
 20
297.0
 30
0.0
 11
420.0
 21
0.0
 31
0.0
  0
LINE
  5
55
330
1F
100
AcDbEntity
  8
1
  6
CONTINUOUS
 62
   251
 60
     1
100
AcDbLine
 10
0.0
 20
0.0
 30
0.0
 11
420.0
 21
0.0
 31
0.0
  0
LINE
  5
56
330
1F
100
AcDbEntity
  8
1
  6
CONTINUOUS
 62
    19
100
AcDbLine
 10
103.242662
 20
172.251697
 30
0.0
 11
102.942662
 21
171.951697
 31
0.0
  0
LINE
  5
57
330
1F
100
AcDbEntity
  8
1
  6
CONTINUOUS
 62
    19
100
AcDbLine
 10
102.942662
 20
57.551697
 30
0.0
 11
103.242662
 21
57.251697
 31
0.0
  0
LINE
  5
58
330
1F
100
AcDbEntity
  8
1
  6
CONTINUOUS
 62
    19
100
AcDbLine
 10
103.242662
 20
57.251697
 30
0.0
 11
106.442662
 21
57.251697
 31
0.0
  0
LINE
  5
59
330
1F
100
AcDbEntity
  8
1
  6
CONTINUOUS
 62
    19
100
AcDbLine
 10
106.442662
 20
172.251697
 30
0.0
 11
103.242662
 21
172.251697
 31
0.0
  0
LINE
  5
5A
330
1F
100
AcDbEntity
  8
1
  6
CONTINUOUS
 62
    19
100
AcDbLine
 10
101.942662
 20
123.503565
 30
0.0
 11
96.514682
 21
123.503565
 31
0.0
  0
LINE
  5
5B
330
1F
100
AcDbEntity
  8
1
  6
CONTINUOUS
 62
    19
100
AcDbLine
 10
96.514682
 20
123.503565
 30
0.0
 11
102.029817
 21
123.587353
 31
0.0
  0
LINE
  5
5C
330
1F
100
AcDbEntity
  8
1
  6
CONTINUOUS
 62
    19
100
AcDbLine
 10
101.942662
 20
105.999829
 30
0.0
 11
96.514682
 21
105.999829
 31
0.0
  0
LINE
  5
5D
330
1F
100
AcDbEntity
  8
1
  6
CONTINUOUS
 62
    19
100
AcDbLine
 10
96.514682
 20
105.999829
 30
0.0
 11
102.029817
 21
105.916042
 31
0.0
  0
LINE
  5
5E
330
1F
100
AcDbEntity
  8
1
  6
CONTINUOUS
 62
    19
100
AcDbLine
 10
102.029817
 20
165.634209
 30
0.0
 11
91.942662
 21
164.751697
 31
0.0
  0
LINE
  5
5F
330
1F
100
AcDbEntity
  8
1
  6
CONTINUOUS
 62
    19
100
AcDbLine
 10
91.942662
 20
64.751697
 30
0.0
 11
102.029817
 21
63.869186
 31
0.0
  0
LINE
  5
60
330
1F
100
AcDbEntity
  8
1
  6
CONTINUOUS
 62
    19
100
AcDbLine
 10
96.514682
 20
81.421579
 30
0.0
 11
102.029817
 21
81.102489
 31
0.0
  0
LINE
  5
61
330
1F
100
AcDbEntity
  8
1
  6
CONTINUOUS
 62
    19
100
AcDbLine
 10
96.514682
 20
70.501355
 30
0.0
 11
102.029817
 21
70.077718
 31
0.0
  0
LINE
  5
62
330
1F
100
AcDbEntity
  8
1
  6
CONTINUOUS
 62
    19
100
AcDbLine
 10
96.514682
 20
159.002039
 30
0.0
 11
102.029817
 21
159.425676
 31
0.0
  0
LINE
  5
63
330
1F
100
AcDbEntity
  8
1
  6
CONTINUOUS
 62
    19
100
AcDbLine
 10
96.514682
 20
148.081815
 30
0.0
 11
102.029817
 21
148.400906
 31
0.0
  0
LINE
  5
64
330
1F
100
AcDbEntity
  8
1
  6
CONTINUOUS
 62
    19
100
AcDbLine
 10
101.942662
 20
70.501355
 30
0.0
 11
96.514682
 21
70.501355
 31
0.0
  0
LINE
  5
65
330
1F
100
AcDbEntity
  8
1
  6
CONTINUOUS
 62
    19
100
AcDbLine
 10
101.942662
 20
159.002039
 30
0.0
 11
96.514682
 21
159.002039
 31
0.0
  0
LINE
  5
66
330
1F
100
AcDbEntity
  8
1
  6
CONTINUOUS
 62
    19
100
AcDbLine
 10
102.942662
 20
57.551697
 30
0.0
 11
102.942662
 21
171.951697
 31
0.0
  0
LINE
  5
67
330
1F
100
AcDbEntity
  8
1
  6
CONTINUOUS
 62
    19
100
AcDbLine
 10
103.242662
 20
172.251697
 30
0.0
 11
103.242662
 21
57.251697
 31
0.0
  0
LINE
  5
68
330
1F
100
AcDbEntity
  8
1
  6
CONTINUOUS
 62
    19
100
AcDbLine
 10
101.942662
 20
123.503565
 30
0.0
 11
101.942662
 21
105.999829
 31
0.0
  0
LINE
  5
69
330
1F
100
AcDbEntity
  8
1
  6
CONTINUOUS
 62
    19
100
AcDbLine
 10
102.029817
 20
81.102489
 30
0.0
 11
102.029817
 21
105.916042
 31
0.0
  0
LINE
  5
6A
330
1F
100
AcDbEntity
  8
1
  6
CONTINUOUS
 62
    19
100
AcDbLine
 10
102.029817
 20
148.400906
 30
0.0
 11
102.029817
 21
123.587353
 31
0.0
  0
LINE
  5
6B
330
1F
100
AcDbEntity
  8
1
  6
CONTINUOUS
 62
    19
100
AcDbLine
 10
96.514682
 20
123.503565
 30
0.0
 11
96.514682
 21
105.999829
 31
0.0
  0
LINE
  5
6C
330
1F
100
AcDbEntity
  8
1
  6
CONTINUOUS
 62
    19
100
AcDbLine
 10
106.442662
 20
172.251697
 30
0.0
 11
106.442662
 21
57.251697
 31
0.0
  0
LINE
  5
6D
330
1F
100
AcDbEntity
  8
1
  6
CONTINUOUS
 62
    19
100
AcDbLine
 10
96.514682
 20
81.421579
 30
0.0
 11
96.514682
 21
70.501355
 31
0.0
  0
LINE
  5
6E
330
1F
100
AcDbEntity
  8
1
  6
CONTINUOUS
 62
    19
100
AcDbLine
 10
102.029817
 20
70.077718
 30
0.0
 11
102.029817
 21
63.869186
 31
0.0
  0
LINE
  5
6F
330
1F
100
AcDbEntity
  8
1
  6
CONTINUOUS
 62
    19
100
AcDbLine
 10
102.029817
 20
165.634209
 30
0.0
 11
102.029817
 21
159.425676
 31
0.0
  0
LINE
  5
70
330
1F
100
AcDbEntity
  8
1
  6
CONTINUOUS
 62
    19
100
AcDbLine
 10
96.514682
 20
148.081815
 30
0.0
 11
96.514682
 21
159.002039
 31
0.0
  0
LINE
  5
71
330
1F
100
AcDbEntity
  8
1
  6
CONTINUOUS
 62
    19
100
AcDbLine
 10
101.942662
 20
81.107466
 30
0.0
 11
101.942662
 21
70.501355
 31
0.0
  0
LINE
  5
72
330
1F
100
AcDbEntity
  8
1
  6
CONTINUOUS
 62
    19
100
AcDbLine
 10
101.942662
 20
148.395929
 30
0.0
 11
101.942662
 21
159.002039
 31
0.0
  0
LINE
  5
73
330
1F
100
AcDbEntity
  8
1
  6
CONTINUOUS
 62
    19
100
AcDbLine
 10
236.491861
 20
147.509327
 30
0.0
 11
234.058669
 21
145.754454
 31
0.0
  0
LINE
  5
74
330
1F
100
AcDbEntity
  8
1
  6
CONTINUOUS
 62
    19
100
AcDbLine
 10
211.610613
 20
163.610444
 30
0.0
 11
212.77316
 21
166.376034
 31
0.0
  0
LINE
  5
75
330
1F
100
AcDbEntity
  8
1
  6
CONTINUOUS
 62
    19
100
AcDbLine
 10
193.807874
 20
170.684841
 30
0.0
 11
193.661325
 21
167.688423
 31
0.0
  0
LINE
  5
76
330
1F
100
AcDbEntity
  8
1
  6
CONTINUOUS
 62
    19
100
AcDbLine
 10
149.066067
 20
151.785162
 30
0.0
 11
151.3164
 21
149.801226
 31
0.0
  0
LINE
  5
77
330
1F
100
AcDbEntity
  8
1
  6
CONTINUOUS
 62
    19
100
AcDbLine
 10
242.06984
 20
129.18255
 30
0.0
 11
244.956494
 21
129.999391
 31
0.0
  0
LINE
  5
78
330
1F
100
AcDbEntity
  8
1
  6
CONTINUOUS
 62
    19
100
AcDbLine
 10
165.701618
 20
161.284795
 30
0.0
 11
164.265543
 21
163.918744
 31
0.0
  0
LINE
  5
79
330
1F
100
AcDbEntity
  8
1
  6
CONTINUOUS
 62
    19
100
AcDbLine
 10
236.491861
 20
81.994068
 30
0.0
 11
234.058669
 21
83.748941
 31
0.0
  0
LINE
  5
7A
330
1F
100
AcDbEntity
  8
1
  6
CONTINUOUS
 62
    19
100
AcDbLine
 10
242.06984
 20
100.320844
 30
0.0
 11
244.956494
 21
99.504003
 31
0.0
  0
LINE
  5
7B
330
1F
100
AcDbEntity
  8
1
  6
CONTINUOUS
 62
    19
100
AcDbLine
 10
193.807874
 20
58.818554
 30
0.0
 11
193.661325
 21
61.814972
 31
0.0
  0
LINE
  5
7C
330
1F
100
AcDbEntity
  8
1
  6
CONTINUOUS
 62
    19
100
AcDbLine
 10
211.610613
 20
65.89295
 30
0.0
 11
212.77316
 21
63.127361
 31
0.0
  0
LINE
  5
7D
330
1F
100
AcDbEntity
  8
1
  6
CONTINUOUS
 62
    19
100
AcDbLine
 10
165.701618
 20
68.2186
 30
0.0
 11
164.265543
 21
65.584651
 31
0.0
  0
LINE
  5
7E
330
1F
100
AcDbEntity
  8
1
  6
CONTINUOUS
 62
    19
100
AcDbLine
 10
149.066067
 20
77.718233
 30
0.0
 11
151.3164
 21
79.702168
 31
0.0
  0
LINE
  5
7F
330
1F
100
AcDbEntity
  8
1
  6
CONTINUOUS
 62
    19
100
AcDbLine
 10
138.877476
 20
105.548344
 30
0.0
 11
135.923053
 21
105.027399
 31
0.0
  0
LINE
  5
80
330
1F
100
AcDbEntity
  8
1
  6
CONTINUOUS
 62
    19
100
AcDbLine
 10
138.877476
 20
123.955051
 30
0.0
 11
135.923053
 21
124.475995
 31
0.0
  0
LINE
  5
81
330
1F
100
AcDbEntity
  8
1
  6
CONTINUOUS
 62
    19
100
AcDbLine
 10
248.572287
 20
208.270159
 30
0.0
 11
248.272287
 21
208.570159
 31
0.0
  0
LINE
  5
82
330
1F
100
AcDbEntity
  8
1
  6
CONTINUOUS
 62
    19
100
AcDbLine
 10
133.872287
 20
208.570159
 30
0.0
 11
133.572287
 21
208.270159
 31
0.0
  0
LINE
  5
83
330
1F
100
AcDbEntity
  8
1
  6
CONTINUOUS
 62
    19
100
AcDbLine
 10
140.672287
 20
214.998138
 30
0.0
 11
140.672287
 21
209.570159
 31
0.0
  0
LINE
  5
84
330
1F
100
AcDbEntity
  8
1
  6
CONTINUOUS
 62
    19
100
AcDbLine
 10
133.572287
 20
208.270159
 30
0.0
 11
133.572287
 21
205.070159
 31
0.0
  0
LINE
  5
85
330
1F
100
AcDbEntity
  8
1
  6
CONTINUOUS
 62
    19
100
AcDbLine
 10
248.572287
 20
205.070159
 30
0.0
 11
248.572287
 21
208.270159
 31
0.0
  0
LINE
  5
86
330
1F
100
AcDbEntity
  8
1
  6
CONTINUOUS
 62
    19
100
AcDbLine
 10
241.954799
 20
209.483004
 30
0.0
 11
241.072287
 21
219.570159
 31
0.0
  0
LINE
  5
87
330
1F
100
AcDbEntity
  8
1
  6
CONTINUOUS
 62
    19
100
AcDbLine
 10
141.072287
 20
219.570159
 30
0.0
 11
140.672287
 21
214.998138
 31
0.0
  0
LINE
  5
88
330
1F
100
AcDbEntity
  8
1
  6
CONTINUOUS
 62
    19
100
AcDbLine
 10
239.568074
 20
214.998138
 30
0.0
 11
240.032355
 21
209.483004
 31
0.0
  0
LINE
  5
89
330
1F
100
AcDbEntity
  8
1
  6
CONTINUOUS
 62
    19
100
AcDbLine
 10
231.949903
 20
214.998138
 30
0.0
 11
232.341251
 21
209.483004
 31
0.0
  0
LINE
  5
8A
330
1F
100
AcDbEntity
  8
1
  6
CONTINUOUS
 62
    19
100
AcDbLine
 10
210.603072
 20
214.998138
 30
0.0
 11
210.790053
 21
209.483004
 31
0.0
  0
LINE
  5
8B
330
1F
100
AcDbEntity
  8
1
  6
CONTINUOUS
 62
    19
100
AcDbLine
 10
166.946217
 20
214.998138
 30
0.0
 11
166.715243
 21
209.483004
 31
0.0
  0
LINE
  5
8C
330
1F
100
AcDbEntity
  8
1
  6
CONTINUOUS
 62
    19
100
AcDbLine
 10
153.266689
 20
214.998138
 30
0.0
 11
152.904751
 21
209.483004
 31
0.0
  0
LINE
  5
8D
330
1F
100
AcDbEntity
  8
1
  6
CONTINUOUS
 62
    19
100
AcDbLine
 10
141.437976
 20
214.998138
 30
0.0
 11
140.962795
 21
209.483004
 31
0.0
  0
LINE
  5
8E
330
1F
100
AcDbEntity
  8
1
  6
CONTINUOUS
 62
    19
100
AcDbLine
 10
193.534315
 20
214.998138
 30
0.0
 11
193.557886
 21
209.483004
 31
0.0
  0
LINE
  5
8F
330
1F
100
AcDbEntity
  8
1
  6
CONTINUOUS
 62
    19
100
AcDbLine
 10
210.603072
 20
209.570159
 30
0.0
 11
210.603072
 21
214.998138
 31
0.0
  0
LINE
  5
90
330
1F
100
AcDbEntity
  8
1
  6
CONTINUOUS
 62
    19
100
AcDbLine
 10
153.266689
 20
214.998138
 30
0.0
 11
153.266689
 21
209.570159
 31
0.0
  0
LINE
  5
91
330
1F
100
AcDbEntity
  8
1
  6
CONTINUOUS
 62
    19
100
AcDbLine
 10
239.568074
 20
209.570159
 30
0.0
 11
239.568074
 21
214.998138
 31
0.0
  0
LINE
  5
92
330
1F
100
AcDbEntity
  8
1
  6
CONTINUOUS
 62
    19
100
AcDbLine
 10
140.672287
 20
209.570159
 30
0.0
 11
140.970293
 21
209.570159
 31
0.0
  0
LINE
  5
93
330
1F
100
AcDbEntity
  8
1
  6
CONTINUOUS
 62
    19
100
AcDbLine
 10
248.272287
 20
208.570159
 30
0.0
 11
133.872287
 21
208.570159
 31
0.0
  0
LINE
  5
94
330
1F
100
AcDbEntity
  8
1
  6
CONTINUOUS
 62
    19
100
AcDbLine
 10
248.572287
 20
208.270159
 30
0.0
 11
133.572287
 21
208.270159
 31
0.0
  0
LINE
  5
95
330
1F
100
AcDbEntity
  8
1
  6
CONTINUOUS
 62
    19
100
AcDbLine
 10
166.715243
 20
209.483004
 30
0.0
 11
193.557886
 21
209.483004
 31
0.0
  0
LINE
  5
96
330
1F
100
AcDbEntity
  8
1
  6
CONTINUOUS
 62
    19
100
AcDbLine
 10
193.557653
 20
209.570159
 30
0.0
 11
210.603072
 21
209.570159
 31
0.0
  0
LINE
  5
97
330
1F
100
AcDbEntity
  8
1
  6
CONTINUOUS
 62
    19
100
AcDbLine
 10
248.572287
 20
205.070159
 30
0.0
 11
133.572287
 21
205.070159
 31
0.0
  0
LINE
  5
98
330
1F
100
AcDbEntity
  8
1
  6
CONTINUOUS
 62
    19
100
AcDbLine
 10
240.032355
 20
209.483004
 30
0.0
 11
241.954799
 21
209.483004
 31
0.0
  0
LINE
  5
99
330
1F
100
AcDbEntity
  8
1
  6
CONTINUOUS
 62
    19
100
AcDbLine
 10
231.949903
 20
214.998138
 30
0.0
 11
239.568074
 21
214.998138
 31
0.0
  0
LINE
  5
9A
330
1F
100
AcDbEntity
  8
1
  6
CONTINUOUS
 62
    19
100
AcDbLine
 10
232.341251
 20
209.483004
 30
0.0
 11
210.790053
 21
209.483004
 31
0.0
  0
LINE
  5
9B
330
1F
100
AcDbEntity
  8
1
  6
CONTINUOUS
 62
    19
100
AcDbLine
 10
193.534315
 20
214.998138
 30
0.0
 11
210.603072
 21
214.998138
 31
0.0
  0
LINE
  5
9C
330
1F
100
AcDbEntity
  8
1
  6
CONTINUOUS
 62
    19
100
AcDbLine
 10
153.266689
 20
214.998138
 30
0.0
 11
166.946217
 21
214.998138
 31
0.0
  0
LINE
  5
9D
330
1F
100
AcDbEntity
  8
1
  6
CONTINUOUS
 62
    19
100
AcDbLine
 10
152.904751
 20
209.483004
 30
0.0
 11
140.962795
 21
209.483004
 31
0.0
  0
LINE
  5
9E
330
1F
100
AcDbEntity
  8
1
  6
CONTINUOUS
 62
    19
100
AcDbLine
 10
140.672287
 20
214.998138
 30
0.0
 11
141.437976
 21
214.998138
 31
0.0
  0
LINE
  5
9F
330
1F
100
AcDbEntity
  8
1
  6
CONTINUOUS
 62
    19
100
AcDbLine
 10
153.266689
 20
209.570159
 30
0.0
 11
166.718705
 21
209.570159
 31
0.0
  0
LINE
  5
A0
330
1F
100
AcDbEntity
  8
1
  6
CONTINUOUS
 62
    19
100
AcDbLine
 10
232.335148
 20
209.570159
 30
0.0
 11
239.568074
 21
209.570159
 31
0.0
  0
LINE
  5
A1
330
1F
100
AcDbEntity
  8
1
  6
CONTINUOUS
 62
    81
 60
     1
100
AcDbLine
 10
191.072287
 20
205.070159
 30
0.0
 11
191.071287
 21
205.070159
 31
0.0
  0
ARC
  5
A2
330
1F
100
AcDbEntity
  8
1
  6
CONTINUOUS
 62
    19
100
AcDbCircle
 10
101.942662
 20
166.630404
 30
0.0
 40
1.000000000000026
100
AcDbArc
 50
275.0
 51
0.0
  0
ARC
  5
A3
330
1F
100
AcDbEntity
  8
1
  6
CONTINUOUS
 62
    19
100
AcDbCircle
 10
101.942662
 20
62.872991
 30
0.0
 40
1.00000000000013
100
AcDbArc
 50
0.0
 51
85.0
  0
ARC
  5
A4
330
1F
100
AcDbEntity
  8
1
  6
CONTINUOUS
 62
    19
100
AcDbCircle
 10
91.942662
 20
114.751697
 30
0.0
 40
50.0
100
AcDbArc
 50
90.0
 51
270.0
  0
CIRCLE
  5
A5
330
1F
100
AcDbEntity
  8
1
  6
CONTINUOUS
 62
    19
100
AcDbCircle
 10
191.072287
 20
114.751697
 30
0.0
 40
57.5
  0
CIRCLE
  5
A6
330
1F
100
AcDbEntity
  8
1
  6
CONTINUOUS
 62
    19
100
AcDbCircle
 10
191.072287
 20
114.751697
 30
0.0
 40
49.1434977678977
  0
ARC
  5
A7
330
1F
100
AcDbEntity
  8
1
  6
CONTINUOUS
 62
    19
100
AcDbCircle
 10
191.072287
 20
114.751697
 30
0.0
 40
56.0000000000007
100
AcDbArc
 50
15.8
 51
35.8
  0
ARC
  5
A8
330
1F
100
AcDbEntity
  8
1
  6
CONTINUOUS
 62
    19
100
AcDbCircle
 10
191.072287
 20
114.751697
 30
0.0
 40
53.0000000000028
100
AcDbArc
 50
15.8
 51
35.8
  0
ARC
  5
A9
330
1F
100
AcDbEntity
  8
1
  6
CONTINUOUS
 62
    19
100
AcDbCircle
 10
191.072287
 20
114.751697
 30
0.0
 40
56.0000000000008
100
AcDbArc
 50
67.2
 51
87.2
  0
ARC
  5
AA
330
1F
100
AcDbEntity
  8
1
  6
CONTINUOUS
 62
    19
100
AcDbCircle
 10
191.072287
 20
114.751697
 30
0.0
 40
53.0000000000027
100
AcDbArc
 50
67.2
 51
87.2
  0
ARC
  5
AB
330
1F
100
AcDbEntity
  8
1
  6
CONTINUOUS
 62
    19
100
AcDbCircle
 10
191.072287
 20
114.751697
 30
0.0
 40
56.000000000001
100
AcDbArc
 50
118.6
 51
138.6
  0
ARC
  5
AC
330
1F
100
AcDbEntity
  8
1
  6
CONTINUOUS
 62
    19
100
AcDbCircle
 10
191.072287
 20
114.751697
 30
0.0
 40
53.0000000000027
100
AcDbArc
 50
324.2
 51
344.2
  0
ARC
  5
AD
330
1F
100
AcDbEntity
  8
1
  6
CONTINUOUS
 62
    19
100
AcDbCircle
 10
191.072287
 20
114.751697
 30
0.0
 40
56.0000000000007
100
AcDbArc
 50
324.2
 51
344.2
  0
ARC
  5
AE
330
1F
100
AcDbEntity
  8
1
  6
CONTINUOUS
 62
    19
100
AcDbCircle
 10
191.072287
 20
114.751697
 30
0.0
 40
53.0000000000027
100
AcDbArc
 50
272.8
 51
292.8
  0
ARC
  5
AF
330
1F
100
AcDbEntity
  8
1
  6
CONTINUOUS
 62
    19
100
AcDbCircle
 10
191.072287
 20
114.751697
 30
0.0
 40
56.0000000000008
100
AcDbArc
 50
272.8
 51
292.8
  0
ARC
  5
B0
330
1F
100
AcDbEntity
  8
1
  6
CONTINUOUS
 62
    19
100
AcDbCircle
 10
191.072287
 20
114.751697
 30
0.0
 40
56.000000000001
100
AcDbArc
 50
221.4
 51
241.4
  0
ARC
  5
B1
330
1F
100
AcDbEntity
  8
1
  6
CONTINUOUS
 62
    19
100
AcDbCircle
 10
191.072287
 20
114.751697
 30
0.0
 40
53.0000000000032
100
AcDbArc
 50
221.4
 51
241.4
  0
ARC
  5
B2
330
1F
100
AcDbEntity
  8
1
  6
CONTINUOUS
 62
    19
100
AcDbCircle
 10
191.072287
 20
114.751697
 30
0.0
 40
53.0000000000036
100
AcDbArc
 50
170.0
 51
190.0
  0
ARC
  5
B3
330
1F
100
AcDbEntity
  8
1
  6
CONTINUOUS
 62
    19
100
AcDbCircle
 10
191.072287
 20
114.751697
 30
0.0
 40
56.0
100
AcDbArc
 50
170.0
 51
190.0
  0
ARC
  5
B4
330
1F
100
AcDbEntity
  8
1
  6
CONTINUOUS
 62
    19
100
AcDbCircle
 10
191.072287
 20
114.751697
 30
0.0
 40
53.0000000000032
100
AcDbArc
 50
118.6
 51
138.6
  0
CIRCLE
  5
B5
330
1F
100
AcDbEntity
  8
1
  6
CONTINUOUS
 62
    19
100
AcDbCircle
 10
191.072287
 20
114.751697
 30
0.0
 40
47.51943082867869
  0
CIRCLE
  5
B6
330
1F
100
AcDbEntity
  8
1
  6
CONTINUOUS
 62
    19
100
AcDbCircle
 10
191.072287
 20
114.751697
 30
0.0
 40
46.5
  0
ARC
  5
B7
330
1F
100
AcDbEntity
  8
1
  6
CONTINUOUS
 62
    19
100
AcDbCircle
 10
191.072287
 20
219.570159
 30
0.0
 40
50.0
100
AcDbArc
 50
0.0
 51
180.0
  0
ARC
  5
B8
330
1F
100
AcDbEntity
  8
1
  6
CONTINUOUS
 62
    19
100
AcDbCircle
 10
242.950993
 20
209.570159
 30
0.0
 40
1.000000000000084
100
AcDbArc
 50
185.0
 51
270.0
  0
ARC
  5
B9
330
1F
100
AcDbEntity
  8
1
  6
CONTINUOUS
 62
    19
100
AcDbCircle
 10
139.672287
 20
209.570159
 30
0.0
 40
0.9999999999998591
100
AcDbArc
 50
270.0
 51
0.0
  0
ELLIPSE
  5
BA
330
1F
100
AcDbEntity
  8
1
  6
CONTINUOUS
 62
    19
100
AcDbEllipse
 10
101.942662
 20
69.203076
 30
0.0
 11
1.000000000000036
 21
0.0
 31
0.0
210
0.0
220
0.0
230
1.0
 40
0.877983
 41
0.0
 42
1.48352986419432
  0
ELLIPSE
  5
BB
330
1F
100
AcDbEntity
  8
1
  6
CONTINUOUS
 62
    19
100
AcDbEllipse
 10
101.942662
 20
123.677214
 30
0.0
 11
1.0
 21
0.0
 31
0.0
210
0.0
220
0.0
230
1.0
 40
0.173648
 41
4.71238898038469
 42
6.283185307179607
  0
ELLIPSE
  5
BC
330
1F
100
AcDbEntity
  8
1
  6
CONTINUOUS
 62
    19
100
AcDbEllipse
 10
101.942662
 20
105.826181
 30
0.0
 11
1.0
 21
0.0
 31
0.0
210
0.0
220
0.0
230
1.0
 40
0.173648
 41
0.0
 42
1.570796326794897
  0
ELLIPSE
  5
BD
330
1F
100
AcDbEntity
  8
1
  6
CONTINUOUS
 62
    19
100
AcDbEllipse
 10
101.942662
 20
123.76034
 30
0.0
 11
1.000000000000032
 21
0.0
 31
0.0
210
0.0
220
0.0
230
1.0
 40
0.173648
 41
4.799655451304419
 42
6.283185307186552
  0
ELLIPSE
  5
BE
330
1F
100
AcDbEntity
  8
1
  6
CONTINUOUS
 62
    19
100
AcDbEllipse
 10
101.942662
 20
105.743054
 30
0.0
 11
1.000000000000032
 21
0.0
 31
0.0
210
0.0
220
0.0
230
1.0
 40
0.173648
 41
0.0
 42
1.483529864195224
  0
ELLIPSE
  5
BF
330
1F
100
AcDbEntity
  8
1
  6
CONTINUOUS
 62
    19
100
AcDbEllipse
 10
101.942662
 20
80.443693
 30
0.0
 11
1.000000000000046
 21
0.0
 31
0.0
210
0.0
220
0.0
230
1.0
 40
0.661312
 41
0.0
 42
1.483529864194721
  0
ELLIPSE
  5
C0
330
1F
100
AcDbEntity
  8
1
  6
CONTINUOUS
 62
    19
100
AcDbEllipse
 10
101.942662
 20
149.059701
 30
0.0
 11
1.000000000000046
 21
0.0
 31
0.0
210
0.0
220
0.0
230
1.0
 40
0.661312
 41
4.799655451304419
 42
6.283185307182305
  0
ELLIPSE
  5
C1
330
1F
100
AcDbEntity
  8
1
  6
CONTINUOUS
 62
    19
100
AcDbEllipse
 10
101.942662
 20
69.623372
 30
0.0
 11
1.000000000000016
 21
0.0
 31
0.0
210
0.0
220
0.0
230
1.0
 40
0.877983
 41
0.0
 42
1.570796326794895
  0
ELLIPSE
  5
C2
330
1F
100
AcDbEntity
  8
1
  6
CONTINUOUS
 62
    19
100
AcDbEllipse
 10
101.942662
 20
159.880022
 30
0.0
 11
1.0
 21
0.0
 31
0.0
210
0.0
220
0.0
230
1.0
 40
0.877983
 41
4.712388980384691
 42
6.283185307179586
  0
ELLIPSE
  5
C3
330
1F
100
AcDbEntity
  8
1
  6
CONTINUOUS
 62
    19
100
AcDbEllipse
 10
101.942662
 20
160.300318
 30
0.0
 11
1.00000000000004
 21
0.0
 31
0.0
210
0.0
220
0.0
230
1.0
 40
0.877983
 41
4.799655442985294
 42
6.283185307179521
  0
ELLIPSE
  5
C4
330
1F
100
AcDbEntity
  8
1
  6
CONTINUOUS
 62
    19
100
AcDbEllipse
 10
166.238372
 20
209.570159
 30
0.0
 11
0.0
 21
-1.00000000000004
 31
0.0
210
0.0
220
0.0
230
1.0
 40
0.478692
 41
0.0
 42
1.483529864194293
  0
ELLIPSE
  5
C5
330
1F
100
AcDbEntity
  8
1
  6
CONTINUOUS
 62
    19
100
AcDbEllipse
 10
193.60655
 20
209.570159
 30
0.0
 11
0.0
 21
-1.00000000000002
 31
0.0
210
0.0
220
0.0
230
1.0
 40
0.04885
 41
4.799655442985926
 42
6.283185307176232
  0
ELLIPSE
  5
C6
330
1F
100
AcDbEntity
  8
1
  6
CONTINUOUS
 62
    19
100
AcDbEllipse
 10
210.990588
 20
209.570159
 30
0.0
 11
0.0
 21
-1.000000000000024
 31
0.0
210
0.0
220
0.0
230
1.0
 40
0.387516
 41
4.71238898038469
 42
6.283185307179559
  0
ELLIPSE
  5
C7
330
1F
100
AcDbEntity
  8
1
  6
CONTINUOUS
 62
    19
100
AcDbEllipse
 10
211.176094
 20
209.570159
 30
0.0
 11
0.0
 21
-1.000000000000036
 31
0.0
210
0.0
220
0.0
230
1.0
 40
0.387516
 41
4.799655445323303
 42
6.283185307173829
  0
ELLIPSE
  5
C8
330
1F
100
AcDbEntity
  8
1
  6
CONTINUOUS
 62
    19
100
AcDbEllipse
 10
233.149229
 20
209.570159
 30
0.0
 11
0.0
 21
-1.00000000000003
 31
0.0
210
0.0
220
0.0
230
1.0
 40
0.811064
 41
4.799655445323301
 42
6.28318530717277
  0
ELLIPSE
  5
C9
330
1F
100
AcDbEntity
  8
1
  6
CONTINUOUS
 62
    19
100
AcDbEllipse
 10
152.516578
 20
209.570159
 30
0.0
 11
0.0
 21
-1.0
 31
0.0
210
0.0
220
0.0
230
1.0
 40
0.750111
 41
0.0
 42
1.570796326794898
  0
ELLIPSE
  5
CA
330
1F
100
AcDbEntity
  8
1
  6
CONTINUOUS
 62
    19
100
AcDbEllipse
 10
139.981734
 20
209.570159
 30
0.0
 11
0.0
 21
-1.000000000000032
 31
0.0
210
0.0
220
0.0
230
1.0
 40
0.984808
 41
0.0
 42
1.483529855875168
  0
ELLIPSE
  5
CB
330
1F
100
AcDbEntity
  8
1
  6
CONTINUOUS
 62
    19
100
AcDbEllipse
 10
152.157495
 20
209.570159
 30
0.0
 11
0.0
 21
-1.000000000000046
 31
0.0
210
0.0
220
0.0
230
1.0
 40
0.750111
 41
0.0
 42
1.483529855875167
  0
ELLIPSE
  5
CC
330
1F
100
AcDbEntity
  8
1
  6
CONTINUOUS
 62
    19
100
AcDbEllipse
 10
240.530292
 20
209.570159
 30
0.0
 11
0.0
 21
-1.000000000000032
 31
0.0
210
0.0
220
0.0
230
1.0
 40
0.962218
 41
4.712388980384691
 42
6.283185307179564
  0
ELLIPSE
  5
CD
330
1F
100
AcDbEntity
  8
1
  6
CONTINUOUS
 62
    19
100
AcDbEllipse
 10
240.990912
 20
209.570159
 30
0.0
 11
0.0
 21
-1.00000000000005
 31
0.0
210
0.0
220
0.0
230
1.0
 40
0.962218
 41
4.799655442986394
 42
6.283185307173457
  0
MTEXT
  5
CF
330
1F
100
AcDbEntity
  8
1
  6
CONTINUOUS
 62
     4
100
AcDbMText
 10
11.444359
 20
266.432289
 30
0.0
 40
3.2
 41
0.0
 71
     7
 72
     5
  1
\W00.632;\H3.84;
  7
IDEAS_KANJI
1001
ACAD
1000
MTEXTBEGIN
1070
    73
1070
     2
1070
    44
1040
0.783133
1000
MTEXTEND
1000
ACAD_MTEXT_DEFINED_HEIGHT_BEGIN
1070
    46
1040
0.2
1000
ACAD_MTEXT_DEFINED_HEIGHT_END
  0
TOLERANCE
  5
D1
330
1F
100
AcDbEntity
  8
1
  6
CONTINUOUS
 62
     4
100
AcDbFcf
  3
STANDARD
 10
10.964359
 20
269.064548
 30
0.0
  1
%%v\W0.659;DU640-S-VB%%v
1001
ACAD
1000
DSTYLE
1002
{
1070
   340
1005
CE
1070
   271
1070
     2
1070
   272
1070
     2
1070
   177
1070
     4
1070
   176
1070
     4
1070
   178
1070
     4
1070
    48
1040
-0.005
1070
    41
1041
2.0
1070
    42
1041
0.0
1070
    44
1041
0.0
1070
   140
1041
3.2
1070
   343
1005
D2
1070
   344
1005
D2
1002
}
  0
MTEXT
  5
D8
330
1F
100
AcDbEntity
  8
1
  6
CONTINUOUS
 62
     4
100
AcDbMText
 10
37.344359
 20
266.432289
 30
0.0
 40
3.2
 41
0.0
 71
     7
 72
     5
  1
\W00.581; 
  7
IDEAS_KANJI
1001
ACAD
1000
MTEXTBEGIN
1070
    73
1070
     2
1070
    44
1040
0.783133
1000
MTEXTEND
1000
ACAD_MTEXT_DEFINED_HEIGHT_BEGIN
1070
    46
1040
0.2
1000
ACAD_MTEXT_DEFINED_HEIGHT_END
  0
MTEXT
  5
D9
330
1F
100
AcDbEntity
  8
1
  6
CONTINUOUS
 62
     4
100
AcDbMText
 10
281.229156
 20
23.217979
 30
0.0
 40
3.2
 41
0.0
 71
     7
 72
     5
  1
\W00.674;Unit: mm (in.) 
  7
IDEAS_KANJI
1001
ACAD
1000
MTEXTBEGIN
1070
    73
1070
     2
1070
    44
1040
0.783133
1000
MTEXTEND
1000
ACAD_MTEXT_DEFINED_HEIGHT_BEGIN
1070
    46
1040
0.2
1000
ACAD_MTEXT_DEFINED_HEIGHT_END
  0
INSERT
  5
10F
330
1F
100
AcDbEntity
  8
1
  6
CENTER
 62
     4
100
AcDbBlockReference
  2
CENTERLINE1
 10
0.0
 20
0.0
 30
0.0
  0
INSERT
  5
159
330
1F
100
AcDbEntity
  8
1
  6
CENTER
 62
     4
100
AcDbBlockReference
  2
CENTERLINE2
 10
0.0
 20
0.0
 30
0.0
  0
INSERT
  5
191
330
1F
100
AcDbEntity
  8
1
  6
CENTER
 62
     4
100
AcDbBlockReference
  2
CENTERLINE3
 10
0.0
 20
0.0
 30
0.0
  0
DIMENSION
  5
1A0
330
1F
100
AcDbEntity
  8
1
  6
CONTINUOUS
 62
     4
100
AcDbDimension
  2
DIMNDRAFT3D1
 10
148.434745
 20
76.173335
 30
0.0
 11
235.949077
 21
157.041849
 31
0.0
 70
   163
  1
\C4;%%c 115 \C4;(%%c4.53)
  3
STANDARD
100
AcDbDiametricDimension
 15
233.709828
 25
153.33006
 35
0.0
 40
0.0
1001
ACAD
1000
DSTYLE
1002
{
1070
   287
1070
     3
1070
     7
1000
OPEN
1070
     6
1000
OPEN
1070
   172
1070
     1
1070
   279
1070
     0
1070
   173
1070
     1
1070
   340
1005
196
1070
    75
1070
     1
1070
    76
1070
     1
1070
   271
1070
     1
1070
   272
1070
     2
1070
    77
1070
     1
1070
    73
1070
     0
1070
   177
1070
     4
1070
   176
1070
     4
1070
   178
1070
     4
1070
    48
1040
-0.005
1070
    41
1041
2.0
1070
   147
1041
0.625
1070
    42
1041
0.0
1070
    44
1041
1.5
1070
   140
1041
2.5
1002
}
  0
DIMENSION
  5
1AA
330
1F
100
AcDbEntity
  8
1
  6
CONTINUOUS
 62
     4
100
AcDbDimension
  2
DIMNDRAFT3D2
 10
191.072287
 20
219.570159
 30
0.0
 11
150.030981
 21
270.951921
 31
0.0
 70
   164
  1
\C4;R 50 \C4;(R1.97)
  3
STANDARD
100
AcDbRadialDimension
 15
159.497372
 25
258.339022
 35
0.0
 40
0.0
1001
ACAD
1000
DSTYLE
1002
{
1070
   287
1070
     3
1070
     7
1000
OPEN
1070
     6
1000
OPEN
1070
   279
1070
     0
1070
   173
1070
     1
1070
   340
1005
196
1070
    75
1070
     1
1070
    76
1070
     1
1070
   271
1070
     1
1070
   272
1070
     2
1070
    77
1070
     1
1070
    73
1070
     0
1070
   177
1070
     4
1070
   176
1070
     4
1070
   178
1070
     4
1070
    48
1040
-0.005
1070
    41
1041
2.0
1070
   147
1041
0.625
1070
    42
1041
0.0
1070
    44
1041
1.5
1070
   140
1041
2.5
1002
}
  0
DIMENSION
  5
1B7
330
1F
100
AcDbEntity
  8
1
  6
CONTINUOUS
 62
     4
100
AcDbDimension
  2
DIMNDRAFT3D3
 10
258.350833
 20
205.070159
 30
0.0
 11
258.350833
 21
237.320159
 31
0.0
 70
   160
  1
\C4;65 \C4;(2.56)
  3
STANDARD
100
AcDbAlignedDimension
 13
191.072287
 23
269.570159
 33
0.0
 14
191.072287
 24
205.070159
 34
0.0
 50
90.0
100
AcDbRotatedDimension
1001
ACAD
1000
DSTYLE
1002
{
1070
   287
1070
     3
1070
     7
1000
OPEN
1070
     6
1000
OPEN
1070
    74
1070
     0
1070
   279
1070
     0
1070
   172
1070
     1
1070
   173
1070
     1
1070
   340
1005
196
1070
   271
1070
     1
1070
   272
1070
     2
1070
    77
1070
     1
1070
    73
1070
     0
1070
   177
1070
     4
1070
   176
1070
     4
1070
   178
1070
     4
1070
    48
1040
-0.005
1070
    41
1041
2.0
1070
   147
1041
0.625
1070
    42
1041
0.0
1070
    44
1041
1.5
1070
   140
1041
2.5
1002
}
  0
ENDSEC
  0
SECTION
  2
OBJECTS
  0
DICTIONARY
  5
C
330
0
100
AcDbDictionary
  3
ACAD_GROUP
350
D
  3
ACAD_LAYOUT
350
1A
  3
ACAD_MATERIAL
350
3B
  3
ACAD_MLEADERSTYLE
350
1F2
  3
ACAD_MLINESTYLE
350
17
  3
ACAD_PLOTSETTINGS
350
19
  3
ACAD_VISUALSTYLE
350
2A
  3
ACDBHEADERROUNDTRIPXREC
350
1D0
  3
ACDBVARIABLEDICTIONARY
350
1F0
  0
DICTIONARY
  5
D
102
{ACAD_REACTORS
330
C
102
}
330
C
100
AcDbDictionary
  0
DICTIONARY
  5
1A
102
{ACAD_REACTORS
330
C
102
}
330
C
100
AcDbDictionary
  0
DICTIONARY
  5
3B
102
{ACAD_REACTORS
330
C
102
}
330
C
100
AcDbDictionary
  3
BYBLOCK
350
3D
  3
BYLAYER
350
3C
  3
GLOBAL
350
3E
  0
DICTIONARY
  5
1F2
102
{ACAD_REACTORS
330
C
102
}
330
C
100
AcDbDictionary
  0
DICTIONARY
  5
17
102
{ACAD_REACTORS
330
C
102
}
330
C
100
AcDbDictionary
  3
STANDARD
350
18
  0
DICTIONARY
  5
19
102
{ACAD_REACTORS
330
C
102
}
330
C
100
AcDbDictionary
  0
DICTIONARY
  5
2A
102
{ACAD_REACTORS
330
C
102
}
330
C
100
AcDbDictionary
  3
2DWIREFRAME
350
2F
  3
3D_HIDDEN
350
31
  3
3DWIREFRAME
350
30
  3
BASIC
350
32
  3
BRIGHTEN
350
36
  3
COLORCHANGE
350
3A
  3
CONCEPTUAL
350
34
  3
DIM
350
35
  3
FACEPATTERN
350
39
  3
FLAT
350
2B
  3
FLATWITHEDGES
350
2C
  3
GOURAUD
350
2D
  3
GOURAUDWITHEDGES
350
2E
  3
LINEPATTERN
350
38
  3
REALISTIC
350
33
  3
THICKEN
350
37
  0
DICTIONARY
  5
1D0
102
{ACAD_REACTORS
330
C
102
}
330
C
100
AcDbDictionary
  3
CEPSNTYPE
350
1D9
  3
DIMSTYLEDATA
350
1EF
  3
FINGERPRINTGUID
350
1DA
  3
HYPERLINKBASE
350
1D3
  3
INSUNITS
350
1D8
  3
LAYOUTDICT
350
1D5
  3
LWETCUNION
350
1D7
  3
PLOTSETDICT
350
1D6
  3
PSVPSCALE
350
1DC
  3
PUCSBASE
350
1DF
  3
PUCSORGBACK
350
1E5
  3
PUCSORGBOTTOM
350
1E1
  3
PUCSORGFRONT
350
1E4
  3
PUCSORGLEFT
350
1E2
  3
PUCSORGRIGHT
350
1E3
  3
PUCSORGTOP
350
1E0
  3
PUCSORTHOREF
350
1DD
  3
PUCSORTHOVIEW
350
1DE
  3
STYLESHEET
350
1D4
  3
TSTACKALIGN
350
1D1
  3
TSTACKSIZE
350
1D2
  3
UCSBASE
350
1E8
  3
UCSORGBACK
350
1EE
  3
UCSORGBOTTOM
350
1EA
  3
UCSORGFRONT
350
1ED
  3
UCSORGLEFT
350
1EB
  3
UCSORGRIGHT
350
1EC
  3
UCSORGTOP
350
1E9
  3
UCSORTHOREF
350
1E6
  3
UCSORTHOVIEW
350
1E7
  3
VERSIONGUID
350
1DB
  0
DICTIONARY
  5
1F0
102
{ACAD_REACTORS
330
C
102
}
330
C
100
AcDbDictionary
  3
DIMASSOC
350
1F3
  3
HIDETEXT
350
1F4
  0
MATERIAL
  5
3D
102
{ACAD_REACTORS
330
3B
102
}
102
{ACAD_XDICTIONARY
360
1F7
102
}
330
3B
100
AcDbMaterial
  1
ByBlock
  0
MATERIAL
  5
3C
102
{ACAD_REACTORS
330
3B
102
}
102
{ACAD_XDICTIONARY
360
1F5
102
}
330
3B
100
AcDbMaterial
  1
ByLayer
  0
MATERIAL
  5
3E
102
{ACAD_REACTORS
330
3B
102
}
102
{ACAD_XDICTIONARY
360
1F9
102
}
330
3B
100
AcDbMaterial
  1
Global
  0
MLINESTYLE
  5
18
102
{ACAD_REACTORS
330
17
102
}
330
17
100
AcDbMlineStyle
  2
Standard
 70
     0
  3

 62
   256
 51
90.0
 52
90.0
 71
     2
 49
0.5
 62
   256
  6
BYLAYER
 49
-0.5
 62
   256
  6
BYLAYER
  0
ACAD_PROXY_OBJECT
  5
2F
102
{ACAD_REACTORS
330
2A
102
}
330
2A
100
AcDbProxyObject
 90
      499
 91
      501
 93
      436
310
42CC9915DA5C99599C985B595049028333333333333E3BF0000000000000FB0107901411070040501600405405064090741402480A0340
1001
ACAD
1000
AcDbSavedByObjectVersion
1070
     0
  0
ACAD_PROXY_OBJECT
  5
31
102
{ACAD_REACTORS
330
2A
102
}
330
2A
100
AcDbProxyObject
 90
      499
 91
      501
 93
      500
310
424CD108121A5919195B90640502408333333333333E3BF0000000000000FB01079024090700405020000000000001110200405405064090740C02480A0340
1001
ACAD
1000
AcDbSavedByObjectVersion
1070
     0
  0
ACAD_PROXY_OBJECT
  5
30
102
{ACAD_REACTORS
330
2A
102
}
330
2A
100
AcDbProxyObject
 90
      499
 91
      501
 93
      436
310
42CCD915DA5C99599C985B595059028333333333333E3BF0000000000000FB0107901411070040501600405405064090741402480A0340
1001
ACAD
1000
AcDbSavedByObjectVersion
1070
     0
  0
ACAD_PROXY_OBJECT
  5
32
102
{ACAD_REACTORS
330
2A
102
}
330
2A
100
AcDbProxyObject
 90
      499
 91
      501
 93
      388
310
4150985CDA58D07406404333333333333E3BF0000000000000FB0107A41107004050150841D405064090741402480A0350
1001
ACAD
1000
AcDbSavedByObjectVersion
1070
     0
  0
ACAD_PROXY_OBJECT
  5
36
102
{ACAD_REACTORS
330
2A
102
}
330
2A
100
AcDbProxyObject
 90
      499
 91
      501
 93
      428
310
42109C9A59DA1D195B90C409028333333333333E3BF0000000000000FB010790141107004050150841D405064090741402480A029950
1001
ACAD
1000
AcDbSavedByObjectVersion
1070
     0
  0
ACAD_PROXY_OBJECT
  5
3A
102
{ACAD_REACTORS
330
2A
102
}
330
2A
100
AcDbProxyObject
 90
      499
 91
      501
 93
      452
310
42D0DBDB1BDC90DA185B99D95104090240C333333333333E3BF0000000000000FB0108901411070040501508421405064090741402480A0350
1001
ACAD
1000
AcDbSavedByObjectVersion
1070
     0
  0
ACAD_PROXY_OBJECT
  5
34
102
{ACAD_REACTORS
330
2A
102
}
330
2A
100
AcDbProxyObject
 90
      499
 91
      501
 93
      500
310
4290DBDB98D95C1D1D585B10940D028333333333333E3BF0000000000000FB0107902409070040501000000000000111010841D405064090740C02480A0340
1001
ACAD
1000
AcDbSavedByObjectVersion
1070
     0
  0
ACAD_PROXY_OBJECT
  5
35
102
{ACAD_REACTORS
330
2A
102
}
330
2A
100
AcDbProxyObject
 90
      499
 91
      501
 93
      412
310
40D11A5B50B409028333333333333E3BF0000000000000FB010790141107004050150841D405064090741402480A02677FFFFFD0
1001
ACAD
1000
AcDbSavedByObjectVersion
1070
     0
  0
ACAD_PROXY_OBJECT
  5
39
102
{ACAD_REACTORS
330
2A
102
}
330
2A
100
AcDbProxyObject
 90
      499
 91
      501
 93
      444
310
42D19858D95C185D1D195C9B90F409028333333333333E3BF0000000000000FB010790141107004050150841D405064090741402480A0350
1001
ACAD
1000
AcDbSavedByObjectVersion
1070
     0
  0
ACAD_PROXY_OBJECT
  5
2B
102
{ACAD_REACTORS
330
2A
102
}
330
2A
100
AcDbProxyObject
 90
      499
 91
      501
 93
      388
310
41119B185D240901404333333333333E3BF0000000000000F9010740A41107004050150841D405064090741402480A1B50
1001
ACAD
1000
AcDbSavedByObjectVersion
1070
     0
  0
ACAD_PROXY_OBJECT
  5
2C
102
{ACAD_REACTORS
330
2A
102
}
330
2A
100
AcDbProxyObject
 90
      499
 91
      501
 93
      476
310
43519B185D15DA5D1A115919D95CD0140901404333333333333E3BF0000000000000F9010740901411070040501600405405064090741402480A1B50
1001
ACAD
1000
AcDbSavedByObjectVersion
1070
     0
  0
ACAD_PROXY_OBJECT
  5
2D
102
{ACAD_REACTORS
330
2A
102
}
330
2A
100
AcDbProxyObject
 90
      499
 91
      501
 93
      412
310
41D1DBDD5C985D5910240902404333333333333E3BF0000000000000F9010740A411070040501641D405064090741402480A1B50
1001
ACAD
1000
AcDbSavedByObjectVersion
1070
     0
  0
ACAD_PROXY_OBJECT
  5
2E
102
{ACAD_REACTORS
330
2A
102
}
330
2A
100
AcDbProxyObject
 90
      499
 91
      501
 93
      500
310
4411DBDD5C985D5915DA5D1A115919D95CD0340902404333333333333E3BF0000000000000F9010740901411070040501600405405064090741402480A1B50
1001
ACAD
1000
AcDbSavedByObjectVersion
1070
     0
  0
ACAD_PROXY_OBJECT
  5
38
102
{ACAD_REACTORS
330
2A
102
}
330
2A
100
AcDbProxyObject
 90
      499
 91
      501
 93
      444
310
42D31A5B995C185D1D195C9B90E409028333333333333E3BF0000000000000FB010790141107004050750841D405064090741402483A0350
1001
ACAD
1000
AcDbSavedByObjectVersion
1070
     0
  0
ACAD_PROXY_OBJECT
  5
33
102
{ACAD_REACTORS
330
2A
102
}
330
2A
100
AcDbProxyObject
 90
      499
 91
      501
 93
      420
310
425499585B1A5CDD1A58D08409028333333333333E3BF0000000000000FB01079019070040501508421405064090741402480A1B40
1001
ACAD
1000
AcDbSavedByObjectVersion
1070
     0
  0
ACAD_PROXY_OBJECT
  5
37
102
{ACAD_REACTORS
330
2A
102
}
330
2A
100
AcDbProxyObject
 90
      499
 91
      501
 93
      412
310
41D51A1A58DAD95B90D409028333333333333E3BF0000000000000FB010790141107004050150C41D405064090741402480A0350
1001
ACAD
1000
AcDbSavedByObjectVersion
1070
     0
  0
XRECORD
  5
1D9
102
{ACAD_REACTORS
330
1D0
102
}
330
1D0
100
AcDbXrecord
 90
        0
  0
XRECORD
  5
1EF
102
{ACAD_REACTORS
330
1D0
102
}
330
1D0
100
AcDbXrecord
1000
DSTYLE
1002
{
1070
   171
 70
     2
1070
   143
 40
25.4
1070
   274
 70
     2
1070
    41
 40
0.18
1070
   141
 40
0.09
1070
   271
 70
     4
1070
    43
 40
0.38
1070
   278
 70
    46
1070
    44
 40
0.18
1070
    42
 40
0.0625
1070
   147
 40
0.09
1070
    77
 70
     0
1070
   272
 70
     4
1070
    73
 70
     1
1070
   172
 70
     0
1070
    74
 70
     1
1070
   283
 70
     1
1070
   340
340
11
1070
   140
 40
0.18
1070
   284
 70
     0
1070
    78
 70
     0
1002
}
  0
XRECORD
  5
1DA
102
{ACAD_REACTORS
330
1D0
102
}
330
1D0
100
AcDbXrecord
  1
{D92A2FB4-D05C-4A76-86C7-F48531CA891E}
  0
XRECORD
  5
1D3
102
{ACAD_REACTORS
330
1D0
102
}
330
1D0
100
AcDbXrecord
  1

  0
XRECORD
  5
1D8
102
{ACAD_REACTORS
330
1D0
102
}
330
1D0
100
AcDbXrecord
 90
        4
  0
XRECORD
  5
1D5
102
{ACAD_REACTORS
330
1D0
102
}
330
1D0
100
AcDbXrecord
340
1A
  0
XRECORD
  5
1D7
102
{ACAD_REACTORS
330
1D0
102
}
330
1D0
100
AcDbXrecord
 90
    10781
  0
XRECORD
  5
1D6
102
{ACAD_REACTORS
330
1D0
102
}
330
1D0
100
AcDbXrecord
340
19
  0
XRECORD
  5
1DC
102
{ACAD_REACTORS
330
1D0
102
}
330
1D0
100
AcDbXrecord
 40
0.0
  0
XRECORD
  5
1DF
102
{ACAD_REACTORS
330
1D0
102
}
330
1D0
100
AcDbXrecord
340
0
  0
XRECORD
  5
1E5
102
{ACAD_REACTORS
330
1D0
102
}
330
1D0
100
AcDbXrecord
 10
0.0
 20
0.0
 30
0.0
  0
XRECORD
  5
1E1
102
{ACAD_REACTORS
330
1D0
102
}
330
1D0
100
AcDbXrecord
 10
0.0
 20
0.0
 30
0.0
  0
XRECORD
  5
1E4
102
{ACAD_REACTORS
330
1D0
102
}
330
1D0
100
AcDbXrecord
 10
0.0
 20
0.0
 30
0.0
  0
XRECORD
  5
1E2
102
{ACAD_REACTORS
330
1D0
102
}
330
1D0
100
AcDbXrecord
 10
0.0
 20
0.0
 30
0.0
  0
XRECORD
  5
1E3
102
{ACAD_REACTORS
330
1D0
102
}
330
1D0
100
AcDbXrecord
 10
0.0
 20
0.0
 30
0.0
  0
XRECORD
  5
1E0
102
{ACAD_REACTORS
330
1D0
102
}
330
1D0
100
AcDbXrecord
 10
0.0
 20
0.0
 30
0.0
  0
XRECORD
  5
1DD
102
{ACAD_REACTORS
330
1D0
102
}
330
1D0
100
AcDbXrecord
340
0
  0
XRECORD
  5
1DE
102
{ACAD_REACTORS
330
1D0
102
}
330
1D0
100
AcDbXrecord
 70
     0
  0
XRECORD
  5
1D4
102
{ACAD_REACTORS
330
1D0
102
}
330
1D0
100
AcDbXrecord
  1

  0
XRECORD
  5
1D1
102
{ACAD_REACTORS
330
1D0
102
}
330
1D0
100
AcDbXrecord
 90
        1
  0
XRECORD
  5
1D2
102
{ACAD_REACTORS
330
1D0
102
}
330
1D0
100
AcDbXrecord
 90
       70
  0
XRECORD
  5
1E8
102
{ACAD_REACTORS
330
1D0
102
}
330
1D0
100
AcDbXrecord
340
0
  0
XRECORD
  5
1EE
102
{ACAD_REACTORS
330
1D0
102
}
330
1D0
100
AcDbXrecord
 10
0.0
 20
0.0
 30
0.0
  0
XRECORD
  5
1EA
102
{ACAD_REACTORS
330
1D0
102
}
330
1D0
100
AcDbXrecord
 10
0.0
 20
0.0
 30
0.0
  0
XRECORD
  5
1ED
102
{ACAD_REACTORS
330
1D0
102
}
330
1D0
100
AcDbXrecord
 10
0.0
 20
0.0
 30
0.0
  0
XRECORD
  5
1EB
102
{ACAD_REACTORS
330
1D0
102
}
330
1D0
100
AcDbXrecord
 10
0.0
 20
0.0
 30
0.0
  0
XRECORD
  5
1EC
102
{ACAD_REACTORS
330
1D0
102
}
330
1D0
100
AcDbXrecord
 10
0.0
 20
0.0
 30
0.0
  0
XRECORD
  5
1E9
102
{ACAD_REACTORS
330
1D0
102
}
330
1D0
100
AcDbXrecord
 10
0.0
 20
0.0
 30
0.0
  0
XRECORD
  5
1E6
102
{ACAD_REACTORS
330
1D0
102
}
330
1D0
100
AcDbXrecord
340
0
  0
XRECORD
  5
1E7
102
{ACAD_REACTORS
330
1D0
102
}
330
1D0
100
AcDbXrecord
 70
     0
  0
XRECORD
  5
1DB
102
{ACAD_REACTORS
330
1D0
102
}
330
1D0
100
AcDbXrecord
  1
{FAEB1C32-E019-11D5-929B-00C0DF256EC4}
  0
DICTIONARYVAR
  5
1F3
102
{ACAD_REACTORS
330
1F0
102
}
330
1F0
100
DictionaryVariables
280
     0
  1
2
  0
DICTIONARYVAR
  5
1F4
102
{ACAD_REACTORS
330
1F0
102
}
330
1F0
100
DictionaryVariables
280
     0
  1
1
  0
DICTIONARY
  5
1F7
330
3D
100
AcDbDictionary
280
     1
  3
ACAD_XREC_ROUNDTRIP
360
1F8
  0
DICTIONARY
  5
1F5
330
3C
100
AcDbDictionary
280
     1
  3
ACAD_XREC_ROUNDTRIP
360
1F6
  0
DICTIONARY
  5
1F9
330
3E
100
AcDbDictionary
280
     1
  3
ACAD_XREC_ROUNDTRIP
360
1FA
  0
XRECORD
  5
1F8
102
{ACAD_REACTORS
330
1F7
102
}
330
1F7
100
AcDbXrecord
102
MATERIAL
148
0.0
149
0.0
149
0.0
 93
        0
 94
      127
282
     0
 72
     1
 77
     1
171
     1
175
     1
179
     1
273
     0
  0
XRECORD
  5
1F6
102
{ACAD_REACTORS
330
1F5
102
}
330
1F5
100
AcDbXrecord
102
MATERIAL
148
0.0
149
0.0
149
0.0
 93
        0
 94
      127
282
     0
 72
     1
 77
     1
171
     1
175
     1
179
     1
273
     0
  0
XRECORD
  5
1FA
102
{ACAD_REACTORS
330
1F9
102
}
330
1F9
100
AcDbXrecord
102
MATERIAL
148
0.0
149
0.0
149
0.0
 93
        0
 94
      127
282
     0
 72
     1
 77
     1
171
     1
175
     1
179
     1
273
     0
  0
ENDSEC
  0
EOF
