  0
SECTION
  2
HEADER
  9
$ACADVER
  1
AC1014
  9
$ACADMAINTVER
 70
     9
  9
$DWGCODEPAGE
  3
ANSI_932
  9
$INSBASE
 10
0.0
 20
0.0
 30
0.0
  9
$EXTMIN
 10
-0.5
 20
-0.5
 30
-0.5
  9
$EXTMAX
 10
5.0
 20
5.0
 30
5.0
  9
$LIMMIN
 10
-0.5
 20
-0.5
  9
$LIMMAX
 10
5.0
 20
5.0
  9
$ORTHOMODE
 70
     0
  9
$REGENMODE
 70
     1
  9
$FILLMODE
 70
     1
  9
$QTEXTMODE
 70
     0
  9
$MIRRTEXT
 70
     1
  9
$DRAGMODE
 70
     2
  9
$LTSCALE
 40
1.0
  9
$OSMODE
 70
    37
  9
$ATTMODE
 70
     1
  9
$TEXTSIZE
 40
0.2
  9
$TRACEWID
 40
0.05
  9
$TEXTSTYLE
  7
STANDARD
  9
$CLAYER
  8
0
  9
$CELTYPE
  6
BYLAYER
  9
$CECOLOR
 62
   256
  9
$CELTSCALE
 40
1.0
  9
$DELOBJ
 70
     1
  9
$DISPSILH
 70
     0
  9
$DIMSCALE
 40
1.0
  9
$DIMASZ
 40
0.18
  9
$DIMEXO
 40
0.0625
  9
$DIMDLI
 40
0.38
  9
$DIMRND
 40
0.0
  9
$DIMDLE
 40
0.0
  9
$DIMEXE
 40
0.18
  9
$DIMTP
 40
0.0
  9
$DIMTM
 40
0.0
  9
$DIMTXT
 40
0.18
  9
$DIMCEN
 40
0.09
  9
$DIMTSZ
 40
0.0
  9
$DIMTOL
 70
     0
  9
$DIMLIM
 70
     0
  9
$DIMTIH
 70
     1
  9
$DIMTOH
 70
     1
  9
$DIMSE1
 70
     0
  9
$DIMSE2
 70
     0
  9
$DIMTAD
 70
     0
  9
$DIMZIN
 70
     0
  9
$DIMBLK
  1

  9
$DIMASO
 70
     1
  9
$DIMSHO
 70
     1
  9
$DIMPOST
  1

  9
$DIMAPOST
  1

  9
$DIMALT
 70
     0
  9
$DIMALTD
 70
     2
  9
$DIMALTF
 40
25.4
  9
$DIMLFAC
 40
1.0
  9
$DIMTOFL
 70
     0
  9
$DIMTVP
 40
0.0
  9
$DIMTIX
 70
     0
  9
$DIMSOXD
 70
     0
  9
$DIMSAH
 70
     0
  9
$DIMBLK1
  1

  9
$DIMBLK2
  1

  9
$DIMSTYLE
  2
STANDARD
  9
$DIMCLRD
 70
     0
  9
$DIMCLRE
 70
     0
  9
$DIMCLRT
 70
     0
  9
$DIMTFAC
 40
1.0
  9
$DIMGAP
 40
0.09
  9
$DIMJUST
 70
     0
  9
$DIMSD1
 70
     0
  9
$DIMSD2
 70
     0
  9
$DIMTOLJ
 70
     1
  9
$DIMTZIN
 70
     0
  9
$DIMALTZ
 70
     0
  9
$DIMALTTZ
 70
     0
  9
$DIMFIT
 70
     3
  9
$DIMUPT
 70
     0
  9
$DIMUNIT
 70
     2
  9
$DIMDEC
 70
     4
  9
$DIMTDEC
 70
     4
  9
$DIMALTU
 70
     2
  9
$DIMALTTD
 70
     2
  9
$DIMTXSTY
  7
STANDARD
  9
$DIMAUNIT
 70
     0
  9
$LUNITS
 70
     2
  9
$LUPREC
 70
     4
  9
$SKETCHINC
 40
0.1
  9
$FILLETRAD
 40
0.5
  9
$AUNITS
 70
     0
  9
$AUPREC
 70
     0
  9
$MENU
  1
.
  9
$ELEVATION
 40
0.0
  9
$PELEVATION
 40
0.0
  9
$THICKNESS
 40
0.0
  9
$LIMCHECK
 70
     0
  9
$CHAMFERA
 40
0.5
  9
$CHAMFERB
 40
0.5
  9
$CHAMFERC
 40
1.0
  9
$CHAMFERD
 40
0.0
  9
$SKPOLY
 70
     0
  9
$TDCREATE
 40
2457092.721817662
  9
$TDUPDATE
 40
2457092.721817674
  9
$TDINDWG
 40
0.0000000116
  9
$TDUSRTIMER
 40
0.0000000116
  9
$USRTIMER
 70
     1
  9
$ANGBASE
 50
0.0
  9
$ANGDIR
 70
     0
  9
$PDMODE
 70
     0
  9
$PDSIZE
 40
0.0
  9
$PLINEWID
 40
0.0
  9
$COORDS
 70
     1
  9
$SPLFRAME
 70
     0
  9
$SPLINETYPE
 70
     6
  9
$SPLINESEGS
 70
     8
  9
$ATTDIA
 70
     0
  9
$ATTREQ
 70
     1
  9
$HANDLING
 70
     1
  9
$HANDSEED
  5
237
  9
$SURFTAB1
 70
     6
  9
$SURFTAB2
 70
     6
  9
$SURFTYPE
 70
     6
  9
$SURFU
 70
     6
  9
$SURFV
 70
     6
  9
$UCSNAME
  2

  9
$UCSORG
 10
0.0
 20
0.0
 30
0.0
  9
$UCSXDIR
 10
1.0
 20
0.0
 30
0.0
  9
$UCSYDIR
 10
0.0
 20
1.0
 30
0.0
  9
$PUCSNAME
  2

  9
$PUCSORG
 10
0.0
 20
0.0
 30
0.0
  9
$PUCSXDIR
 10
1.0
 20
0.0
 30
0.0
  9
$PUCSYDIR
 10
0.0
 20
1.0
 30
0.0
  9
$USERI1
 70
     0
  9
$USERI2
 70
     0
  9
$USERI3
 70
     0
  9
$USERI4
 70
     0
  9
$USERI5
 70
     0
  9
$USERR1
 40
0.0
  9
$USERR2
 40
0.0
  9
$USERR3
 40
0.0
  9
$USERR4
 40
0.0
  9
$USERR5
 40
0.0
  9
$WORLDVIEW
 70
     1
  9
$SHADEDGE
 70
     3
  9
$SHADEDIF
 70
    70
  9
$TILEMODE
 70
     1
  9
$MAXACTVP
 70
    64
  9
$PINSBASE
 10
0.0
 20
0.0
 30
0.0
  9
$PLIMCHECK
 70
     0
  9
$PEXTMIN
 10
-0.5
 20
-0.5
 30
-0.5
  9
$PEXTMAX
 10
5.0
 20
5.0
 30
5.0
  9
$PLIMMIN
 10
-0.5
 20
-0.5
  9
$PLIMMAX
 10
5.0
 20
5.0
  9
$UNITMODE
 70
     0
  9
$VISRETAIN
 70
     1
  9
$PLINEGEN
 70
     0
  9
$PSLTSCALE
 70
     1
  9
$TREEDEPTH
 70
  3020
  9
$PICKSTYLE
 70
     1
  9
$CMLSTYLE
  2
STANDARD
  9
$CMLJUST
 70
     0
  9
$CMLSCALE
 40
1.0
  9
$PROXYGRAPHICS
 70
     1
  9
$MEASUREMENT
 70
     1
  0
ENDSEC
  0
SECTION
  2
CLASSES
  0
CLASS
  1
ACDBDICTIONARYWDFLT
  2
AcDbDictionaryWithDefault
  3
ObjectDBX Classes
 90
        0
280
     0
281
     0
  0
CLASS
  1
VISUALSTYLE
  2
AcDbVisualStyle
  3
ObjectDBX Classes
 90
     4095
280
     0
281
     0
  0
CLASS
  1
MATERIAL
  2
AcDbMaterial
  3
ObjectDBX Classes
 90
     1153
280
     0
281
     0
  0
CLASS
  1
DICTIONARYVAR
  2
AcDbDictionaryVar
  3
ObjectDBX Classes
 90
        0
280
     0
281
     0
  0
CLASS
  1
XRECORD
  2
AcDbXrecord
  3
AutoCAD 2000
 90
        0
280
     0
281
     0
  0
CLASS
  1
LWPOLYLINE
  2
AcDbPolyline
  3
AutoCAD 2000
 90
        0
280
     0
281
     1
  0
CLASS
  1
HATCH
  2
AcDbHatch
  3
AutoCAD 2000
 90
        0
280
     0
281
     1
  0
CLASS
  1
ACDBPLACEHOLDER
  2
AcDbPlaceHolder
  3
ObjectDBX Classes
 90
        0
280
     0
281
     0
  0
CLASS
  1
LAYOUT
  2
AcDbLayout
  3
ObjectDBX Classes
 90
        0
280
     0
281
     0
  0
ENDSEC
  0
SECTION
  2
TABLES
  0
TABLE
  2
VPORT
  5
8
330
0
100
AcDbSymbolTable
 70
    17
  0
VPORT
  5
29
330
8
100
AcDbSymbolTableRecord
100
AcDbViewportTableRecord
  2
DUMMY
 70
     0
 10
0.0
 20
0.0
 11
1.0
 21
1.0
 12
10.429907
 22
4.5
 13
0.0
 23
0.0
 14
0.5
 24
0.5
 15
0.5
 25
0.5
 16
0.0
 26
0.0
 36
1.0
 17
0.0
 27
0.0
 37
0.0
 40
9.0
 41
1.972973
 42
50.0
 43
0.0
 44
0.0
 50
0.0
 51
0.0
 71
     0
 72
   100
 73
     1
 74
     3
 75
     0
 76
     0
 77
     0
 78
     0
  0
VPORT
  5
1FC
330
8
100
AcDbSymbolTableRecord
100
AcDbViewportTableRecord
  2
*ACTIVE
 70
     0
 10
0.0
 20
0.0
 11
1.0
 21
1.0
 12
246.106085
 22
228.439443
 13
0.0
 23
0.0
 14
0.5
 24
0.5
 15
0.5
 25
0.5
 16
0.0
 26
0.0
 36
1.0
 17
0.0
 27
0.0
 37
0.0
 40
254.0
 41
0.069908
 42
50.0
 43
854.777886
 44
-854.777886
 50
0.0
 51
0.0
 71
     0
 72
   100
 73
     1
 74
     3
 75
     0
 76
     0
 77
     0
 78
     0
  0
VPORT
  5
1FD
330
8
100
AcDbSymbolTableRecord
100
AcDbViewportTableRecord
  2
L1
 70
     0
 10
0.0
 20
0.0
 11
1.0
 21
1.0
 12
246.106085
 22
228.439443
 13
0.0
 23
0.0
 14
0.5
 24
0.5
 15
0.5
 25
0.5
 16
0.0
 26
0.0
 36
1.0
 17
0.0
 27
0.0
 37
0.0
 40
254.0
 41
0.069908
 42
50.0
 43
854.777886
 44
-854.777886
 50
0.0
 51
0.0
 71
     0
 72
   100
 73
     1
 74
     3
 75
     0
 76
     0
 77
     0
 78
     0
  0
VPORT
  5
1FE
330
8
100
AcDbSymbolTableRecord
100
AcDbViewportTableRecord
  2
L2
 70
     0
 10
0.0
 20
0.0
 11
0.5
 21
1.0
 12
0.0
 22
0.0
 13
0.0
 23
0.0
 14
0.5
 24
0.5
 15
0.5
 25
0.5
 16
0.0
 26
-1.0
 36
0.0
 17
0.0
 27
0.0
 37
0.0
 40
1319.822715
 41
0.013454
 42
50.0
 43
672.020833
 44
-672.020833
 50
0.0
 51
0.0
 71
     0
 72
   100
 73
     1
 74
     3
 75
     0
 76
     0
 77
     0
 78
     0
  0
VPORT
  5
1FF
330
8
100
AcDbSymbolTableRecord
100
AcDbViewportTableRecord
  2
L2
 70
     0
 10
0.5
 20
0.0
 11
1.0
 21
1.0
 12
0.0
 22
0.0
 13
0.0
 23
0.0
 14
0.5
 24
0.5
 15
0.5
 25
0.5
 16
1.0
 26
0.0
 36
0.0
 17
0.0
 27
0.0
 37
0.0
 40
1319.822715
 41
0.013454
 42
50.0
 43
672.020833
 44
-672.020833
 50
0.0
 51
0.0
 71
     0
 72
   100
 73
     1
 74
     3
 75
     0
 76
     0
 77
     0
 78
     0
  0
VPORT
  5
200
330
8
100
AcDbSymbolTableRecord
100
AcDbViewportTableRecord
  2
L3
 70
     0
 10
0.0
 20
0.5
 11
1.0
 21
1.0
 12
246.106085
 22
228.439443
 13
0.0
 23
0.0
 14
0.5
 24
0.5
 15
0.5
 25
0.5
 16
0.0
 26
0.0
 36
1.0
 17
0.0
 27
0.0
 37
0.0
 40
254.0
 41
0.069908
 42
50.0
 43
854.777886
 44
-854.777886
 50
0.0
 51
0.0
 71
     0
 72
   100
 73
     1
 74
     3
 75
     0
 76
     0
 77
     0
 78
     0
  0
VPORT
  5
201
330
8
100
AcDbSymbolTableRecord
100
AcDbViewportTableRecord
  2
L3
 70
     0
 10
0.0
 20
0.0
 11
1.0
 21
0.5
 12
0.0
 22
0.0
 13
0.0
 23
0.0
 14
0.5
 24
0.5
 15
0.5
 25
0.5
 16
0.0
 26
-1.0
 36
0.0
 17
0.0
 27
0.0
 37
0.0
 40
1319.822715
 41
0.013454
 42
50.0
 43
672.020833
 44
-672.020833
 50
0.0
 51
0.0
 71
     0
 72
   100
 73
     1
 74
     3
 75
     0
 76
     0
 77
     0
 78
     0
  0
VPORT
  5
202
330
8
100
AcDbSymbolTableRecord
100
AcDbViewportTableRecord
  2
L4
 70
     0
 10
0.0
 20
0.5
 11
0.5
 21
1.0
 12
246.106085
 22
228.439443
 13
0.0
 23
0.0
 14
0.5
 24
0.5
 15
0.5
 25
0.5
 16
0.0
 26
0.0
 36
1.0
 17
0.0
 27
0.0
 37
0.0
 40
254.0
 41
0.069908
 42
50.0
 43
854.777886
 44
-854.777886
 50
0.0
 51
0.0
 71
     0
 72
   100
 73
     1
 74
     3
 75
     0
 76
     0
 77
     0
 78
     0
  0
VPORT
  5
203
330
8
100
AcDbSymbolTableRecord
100
AcDbViewportTableRecord
  2
L4
 70
     0
 10
0.0
 20
0.0
 11
0.5
 21
0.5
 12
0.0
 22
0.0
 13
0.0
 23
0.0
 14
0.5
 24
0.5
 15
0.5
 25
0.5
 16
0.0
 26
-1.0
 36
0.0
 17
0.0
 27
0.0
 37
0.0
 40
1319.822715
 41
0.013454
 42
50.0
 43
672.020833
 44
-672.020833
 50
0.0
 51
0.0
 71
     0
 72
   100
 73
     1
 74
     3
 75
     0
 76
     0
 77
     0
 78
     0
  0
VPORT
  5
204
330
8
100
AcDbSymbolTableRecord
100
AcDbViewportTableRecord
  2
L4
 70
     0
 10
0.5
 20
0.0
 11
1.0
 21
0.5
 12
0.0
 22
0.0
 13
0.0
 23
0.0
 14
0.5
 24
0.5
 15
0.5
 25
0.5
 16
1.0
 26
0.0
 36
0.0
 17
0.0
 27
0.0
 37
0.0
 40
1319.822715
 41
0.013454
 42
50.0
 43
672.020833
 44
-672.020833
 50
0.0
 51
0.0
 71
     0
 72
   100
 73
     1
 74
     3
 75
     0
 76
     0
 77
     0
 78
     0
  0
VPORT
  5
205
330
8
100
AcDbSymbolTableRecord
100
AcDbViewportTableRecord
  2
L4
 70
     0
 10
0.5
 20
0.5
 11
1.0
 21
1.0
 12
0.0
 22
0.0
 13
0.0
 23
0.0
 14
0.5
 24
0.5
 15
0.5
 25
0.5
 16
0.5773502691896258
 26
-0.5773502691896258
 36
0.5773502691896258
 17
0.0
 27
0.0
 37
0.0
 40
1285.020866
 41
0.013818
 42
50.0
 43
667.141407
 44
-667.141407
 50
0.0
 51
0.0
 71
     0
 72
   100
 73
     1
 74
     3
 75
     0
 76
     0
 77
     0
 78
     0
  0
VPORT
  5
206
330
8
100
AcDbSymbolTableRecord
100
AcDbViewportTableRecord
  2
L6
 70
     0
 10
0.0
 20
0.5
 11
0.333333
 21
1.0
 12
0.0
 22
0.0
 13
0.0
 23
0.0
 14
0.5
 24
0.5
 15
0.5
 25
0.5
 16
0.7188730927569433
 26
-0.5850486126764433
 36
0.3754192287502549
 17
0.0
 27
0.0
 37
0.0
 40
1357.434192
 41
0.013081
 42
50.0
 43
701.839477
 44
-701.839477
 50
0.0
 51
0.0
 71
     0
 72
   100
 73
     1
 74
     3
 75
     0
 76
     0
 77
     0
 78
     0
  0
VPORT
  5
207
330
8
100
AcDbSymbolTableRecord
100
AcDbViewportTableRecord
  2
L6
 70
     0
 10
0.0
 20
0.0
 11
0.333333
 21
0.5
 12
0.0
 22
0.0
 13
0.0
 23
0.0
 14
0.5
 24
0.5
 15
0.5
 25
0.5
 16
-1.0
 26
0.0
 36
0.0
 17
0.0
 27
0.0
 37
0.0
 40
1319.822715
 41
0.013454
 42
50.0
 43
672.020833
 44
-672.020833
 50
0.0
 51
0.0
 71
     0
 72
   100
 73
     1
 74
     3
 75
     0
 76
     0
 77
     0
 78
     0
  0
VPORT
  5
208
330
8
100
AcDbSymbolTableRecord
100
AcDbViewportTableRecord
  2
L6
 70
     0
 10
0.333333
 20
0.5
 11
0.666667
 21
1.0
 12
246.106085
 22
228.439443
 13
0.0
 23
0.0
 14
0.5
 24
0.5
 15
0.5
 25
0.5
 16
0.0
 26
0.0
 36
1.0
 17
0.0
 27
0.0
 37
0.0
 40
254.0
 41
0.069908
 42
50.0
 43
854.777886
 44
-854.777886
 50
0.0
 51
0.0
 71
     0
 72
   100
 73
     1
 74
     3
 75
     0
 76
     0
 77
     0
 78
     0
  0
VPORT
  5
209
330
8
100
AcDbSymbolTableRecord
100
AcDbViewportTableRecord
  2
L6
 70
     0
 10
0.333333
 20
0.0
 11
0.666667
 21
0.5
 12
0.0
 22
0.0
 13
0.0
 23
0.0
 14
0.5
 24
0.5
 15
0.5
 25
0.5
 16
0.0
 26
-1.0
 36
0.0
 17
0.0
 27
0.0
 37
0.0
 40
1319.822715
 41
0.013454
 42
50.0
 43
672.020833
 44
-672.020833
 50
0.0
 51
0.0
 71
     0
 72
   100
 73
     1
 74
     3
 75
     0
 76
     0
 77
     0
 78
     0
  0
VPORT
  5
20A
330
8
100
AcDbSymbolTableRecord
100
AcDbViewportTableRecord
  2
L6
 70
     0
 10
0.666667
 20
0.5
 11
1.0
 21
1.0
 12
0.0
 22
0.0
 13
0.0
 23
0.0
 14
0.5
 24
0.5
 15
0.5
 25
0.5
 16
0.5773502691896258
 26
-0.5773502691896258
 36
0.5773502691896258
 17
0.0
 27
0.0
 37
0.0
 40
1285.020866
 41
0.013818
 42
50.0
 43
667.141407
 44
-667.141407
 50
0.0
 51
0.0
 71
     0
 72
   100
 73
     1
 74
     3
 75
     0
 76
     0
 77
     0
 78
     0
  0
VPORT
  5
20B
330
8
100
AcDbSymbolTableRecord
100
AcDbViewportTableRecord
  2
L6
 70
     0
 10
0.666667
 20
0.0
 11
1.0
 21
0.5
 12
0.0
 22
0.0
 13
0.0
 23
0.0
 14
0.5
 24
0.5
 15
0.5
 25
0.5
 16
1.0
 26
0.0
 36
0.0
 17
0.0
 27
0.0
 37
0.0
 40
1319.822715
 41
0.013454
 42
50.0
 43
672.020833
 44
-672.020833
 50
0.0
 51
0.0
 71
     0
 72
   100
 73
     1
 74
     3
 75
     0
 76
     0
 77
     0
 78
     0
  0
ENDTAB
  0
TABLE
  2
LTYPE
  5
5
330
0
100
AcDbSymbolTable
 70
     7
  0
LTYPE
  5
14
330
5
100
AcDbSymbolTableRecord
100
AcDbLinetypeTableRecord
  2
BYBLOCK
 70
     0
  3

 72
    65
 73
     0
 40
0.0
  0
LTYPE
  5
15
330
5
100
AcDbSymbolTableRecord
100
AcDbLinetypeTableRecord
  2
BYLAYER
 70
     0
  3

 72
    65
 73
     0
 40
0.0
  0
LTYPE
  5
16
330
5
100
AcDbSymbolTableRecord
100
AcDbLinetypeTableRecord
  2
CONTINUOUS
 70
     0
  3
Solid line
 72
    65
 73
     0
 40
0.0
  0
LTYPE
  5
3F
330
5
100
AcDbSymbolTableRecord
100
AcDbLinetypeTableRecord
  2
DASHED
 70
     0
  3
__ __ __ __ __ __ __ __ __
 72
    65
 73
     2
 40
25.72
 49
12.86
 74
     4
 75
     0
340
0
 46
0.0
 50
0.0
 44
0.0
 45
0.0
 49
-12.86
 74
     4
 75
     0
340
0
 46
0.0
 50
0.0
 44
0.0
 45
0.0
  0
LTYPE
  5
40
330
5
100
AcDbSymbolTableRecord
100
AcDbLinetypeTableRecord
  2
HIDDEN
 70
     0
  3
_ _ _ _ _ _ _ _ _ _ _ _ _ _ _
 72
    65
 73
     2
 40
0.5
 49
0.25
 74
     4
 75
     0
340
0
 46
0.0
 50
0.0
 44
0.0
 45
0.0
 49
-0.25
 74
     4
 75
     0
340
0
 46
0.0
 50
0.0
 44
0.0
 45
0.0
  0
LTYPE
  5
41
330
5
100
AcDbSymbolTableRecord
100
AcDbLinetypeTableRecord
  2
PHANTOM
 70
     0
  3
____ _ _ ____ _ _ _____ _ _ ____
 72
    65
 73
     6
 40
50.5
 49
18.0
 74
     4
 75
     0
340
0
 46
0.0
 50
0.0
 44
0.0
 45
0.0
 49
-6.5
 74
     4
 75
     0
340
0
 46
0.0
 50
0.0
 44
0.0
 45
0.0
 49
6.5
 74
     4
 75
     0
340
0
 46
0.0
 50
0.0
 44
0.0
 45
0.0
 49
-6.5
 74
     4
 75
     0
340
0
 46
0.0
 50
0.0
 44
0.0
 45
0.0
 49
6.5
 74
     4
 75
     0
340
0
 46
0.0
 50
0.0
 44
0.0
 45
0.0
 49
-6.5
 74
     4
 75
     0
340
0
 46
0.0
 50
0.0
 44
0.0
 45
0.0
  0
LTYPE
  5
42
330
5
100
AcDbSymbolTableRecord
100
AcDbLinetypeTableRecord
  2
CENTER
 70
     0
  3
____ _ ____ _ ____ _ ____
 72
    65
 73
     4
 40
47.4
 49
22.0
 74
     4
 75
     0
340
0
 46
0.0
 50
0.0
 44
0.0
 45
0.0
 49
-8.5
 74
     4
 75
     0
340
0
 46
0.0
 50
0.0
 44
0.0
 45
0.0
 49
8.5
 74
     4
 75
     0
340
0
 46
0.0
 50
0.0
 44
0.0
 45
0.0
 49
-8.5
 74
     4
 75
     0
340
0
 46
0.0
 50
0.0
 44
0.0
 45
0.0
  0
LTYPE
  5
43
330
5
100
AcDbSymbolTableRecord
100
AcDbLinetypeTableRecord
  2
DOT
 70
     0
  3
.........................
 72
    65
 73
     2
 40
10.0
 49
0.0
 74
     4
 75
     0
340
0
 46
0.0
 50
0.0
 44
0.0
 45
0.0
 49
-10.0
 74
     4
 75
     0
340
0
 46
0.0
 50
0.0
 44
0.0
 45
0.0
  0
LTYPE
  5
44
330
5
100
AcDbSymbolTableRecord
100
AcDbLinetypeTableRecord
  2
DASHDOT
 70
     0
  3
_._._._._._._._._._._._._._._._.
 72
    65
 73
     4
 40
70.0
 49
31.0
 74
     4
 75
     0
340
0
 46
0.0
 50
0.0
 44
0.0
 45
0.0
 49
-13.0
 74
     4
 75
     0
340
0
 46
0.0
 50
0.0
 44
0.0
 45
0.0
 49
13.0
 74
     4
 75
     0
340
0
 46
0.0
 50
0.0
 44
0.0
 45
0.0
 49
-13.0
 74
     4
 75
     0
340
0
 46
0.0
 50
0.0
 44
0.0
 45
0.0
  0
ENDTAB
  0
TABLE
  2
LAYER
  5
2
330
0
100
AcDbSymbolTable
 70
     2
  0
LAYER
  5
10
330
2
100
AcDbSymbolTableRecord
100
AcDbLayerTableRecord
  2
0
 70
     0
 62
     7
  6
CONTINUOUS
  0
LAYER
  5
46
330
2
100
AcDbSymbolTableRecord
100
AcDbLayerTableRecord
  2
1
 70
     0
 62
     7
  6
CONTINUOUS
  0
ENDTAB
  0
TABLE
  2
STYLE
  5
3
330
0
100
AcDbSymbolTable
 70
     4
  0
STYLE
  5
11
330
3
100
AcDbSymbolTableRecord
100
AcDbTextStyleTableRecord
  2
STANDARD
 70
     0
 40
0.0
 41
1.0
 50
0.0
 71
     0
 42
0.2
  3
txt
  4

  0
STYLE
  5
A3
330
3
100
AcDbSymbolTableRecord
100
AcDbTextStyleTableRecord
  2
IDEAS_KANJI
 70
     0
 40
0.0
 41
1.0
 50
0.0
 71
     0
 42
0.2
  3
simplex.shx
  4
bigfont.shx
  0
STYLE
  5
A5
330
3
100
AcDbSymbolTableRecord
100
AcDbTextStyleTableRecord
  2
DWGDIRECTTEXTSTYLE
 70
     0
 40
0.0
 41
1.0
 50
0.0
 71
     0
 42
0.2
  3
simplex
  4

  0
STYLE
  5
1DA
330
3
100
AcDbSymbolTableRecord
100
AcDbTextStyleTableRecord
  2
IDEAS_SIMPLEX
 70
     0
 40
0.0
 41
1.0
 50
0.0
 71
     0
 42
0.2
  3
simplex.shx
  4

  0
ENDTAB
  0
TABLE
  2
VIEW
  5
6
330
0
100
AcDbSymbolTable
 70
     8
  0
VIEW
  5
1F3
330
6
100
AcDbSymbolTableRecord
100
AcDbViewTableRecord
  2
TOP
 70
     0
 40
254.0
 10
246.106085
 20
228.439443
 41
254.0
 11
0.0
 21
0.0
 31
1.0
 12
0.0
 22
0.0
 32
0.0
 42
50.0
 43
854.777886
 44
-854.777886
 50
0.0
 71
     0
  0
VIEW
  5
1F4
330
6
100
AcDbSymbolTableRecord
100
AcDbViewTableRecord
  2
FRONT
 70
     0
 40
1319.822715
 10
0.0
 20
0.0
 41
254.0
 11
0.0
 21
-1.0
 31
0.0
 12
0.0
 22
0.0
 32
0.0
 42
50.0
 43
672.020833
 44
-672.020833
 50
0.0
 71
     0
  0
VIEW
  5
1F5
330
6
100
AcDbSymbolTableRecord
100
AcDbViewTableRecord
  2
RIGHT
 70
     0
 40
1319.822715
 10
0.0
 20
0.0
 41
254.0
 11
1.0
 21
0.0
 31
0.0
 12
0.0
 22
0.0
 32
0.0
 42
50.0
 43
672.020833
 44
-672.020833
 50
0.0
 71
     0
  0
VIEW
  5
1F6
330
6
100
AcDbSymbolTableRecord
100
AcDbViewTableRecord
  2
BACK
 70
     0
 40
1319.822715
 10
0.0
 20
0.0
 41
254.0
 11
0.0
 21
1.0
 31
0.0
 12
0.0
 22
0.0
 32
0.0
 42
50.0
 43
672.020833
 44
-672.020833
 50
0.0
 71
     0
  0
VIEW
  5
1F7
330
6
100
AcDbSymbolTableRecord
100
AcDbViewTableRecord
  2
BOTTOM
 70
     0
 40
254.0
 10
0.0
 20
0.0
 41
254.0
 11
0.0
 21
0.0
 31
-1.0
 12
0.0
 22
0.0
 32
0.0
 42
50.0
 43
659.911358
 44
-659.911358
 50
180.0
 71
     0
  0
VIEW
  5
1F8
330
6
100
AcDbSymbolTableRecord
100
AcDbViewTableRecord
  2
LEFT
 70
     0
 40
1319.822715
 10
0.0
 20
0.0
 41
254.0
 11
-1.0
 21
0.0
 31
0.0
 12
0.0
 22
0.0
 32
0.0
 42
50.0
 43
672.020833
 44
-672.020833
 50
0.0
 71
     0
  0
VIEW
  5
1F9
330
6
100
AcDbSymbolTableRecord
100
AcDbViewTableRecord
  2
TFR-ISO
 70
     0
 40
1285.020866
 10
0.0
 20
0.0
 41
359.210245
 11
0.5773502691896258
 21
-0.5773502691896258
 31
0.5773502691896258
 12
0.0
 22
0.0
 32
0.0
 42
50.0
 43
667.141407
 44
-667.141407
 50
0.0
 71
     0
  0
VIEW
  5
1FA
330
6
100
AcDbSymbolTableRecord
100
AcDbViewTableRecord
  2
TFR-TRI
 70
     0
 40
1357.434192
 10
0.0
 20
0.0
 41
357.33321
 11
0.7188730927569433
 21
-0.5850486126764433
 31
0.3754192287502549
 12
0.0
 22
0.0
 32
0.0
 42
50.0
 43
701.839477
 44
-701.839477
 50
0.0
 71
     0
  0
ENDTAB
  0
TABLE
  2
UCS
  5
7
330
0
100
AcDbSymbolTable
 70
     0
  0
ENDTAB
  0
TABLE
  2
APPID
  5
9
330
0
100
AcDbSymbolTable
 70
     1
  0
APPID
  5
12
330
9
100
AcDbSymbolTableRecord
100
AcDbRegAppTableRecord
  2
ACAD
 70
     0
  0
ENDTAB
  0
TABLE
  2
DIMSTYLE
  5
A
330
0
100
AcDbSymbolTable
 70
     1
  0
DIMSTYLE
105
27
102
{ACAD_REACTORS
330
A6
330
1E7
330
1F2
102
}
330
A
100
AcDbSymbolTableRecord
100
AcDbDimStyleTableRecord
  2
STANDARD
 70
     0
  3

  4

  5

  6

  7

 40
1.0
 41
0.18
 42
0.0625
 43
0.38
 44
0.18
 45
0.0
 46
0.0
 47
0.0
 48
0.0
140
0.18
141
0.09
142
0.0
143
25.4
144
1.0
145
0.0
146
1.0
147
0.09
 71
     0
 72
     0
 73
     1
 74
     1
 75
     0
 76
     0
 77
     0
 78
     0
170
     0
171
     2
172
     0
173
     0
174
     0
175
     0
176
     0
177
     0
178
     0
270
     2
271
     4
272
     4
273
     2
274
     2
340
11
275
     0
280
     0
281
     0
282
     0
283
     1
284
     0
285
     0
286
     0
287
     3
288
     0
  0
ENDTAB
  0
TABLE
  2
BLOCK_RECORD
  5
1
330
0
100
AcDbSymbolTable
 70
     7
  0
BLOCK_RECORD
  5
1F
330
1
100
AcDbSymbolTableRecord
100
AcDbBlockTableRecord
  2
*MODEL_SPACE
  0
BLOCK_RECORD
  5
1B
330
1
100
AcDbSymbolTableRecord
100
AcDbBlockTableRecord
  2
*PAPER_SPACE
  0
BLOCK_RECORD
  5
A7
330
1
100
AcDbSymbolTableRecord
100
AcDbBlockTableRecord
  2
_OPEN
  0
BLOCK_RECORD
  5
AF
330
1
100
AcDbSymbolTableRecord
100
AcDbBlockTableRecord
  2
CENTERLINE1
  0
BLOCK_RECORD
  5
121
330
1
100
AcDbSymbolTableRecord
100
AcDbBlockTableRecord
  2
CENTERLINE2
  0
BLOCK_RECORD
  5
17F
330
1
100
AcDbSymbolTableRecord
100
AcDbBlockTableRecord
  2
CENTERLINE3
  0
BLOCK_RECORD
  5
1DC
330
1
100
AcDbSymbolTableRecord
100
AcDbBlockTableRecord
  2
DIMNDRAFT3D1
  0
BLOCK_RECORD
  5
1E8
330
1
100
AcDbSymbolTableRecord
100
AcDbBlockTableRecord
  2
DIMNDRAFT3D2
  0
ENDTAB
  0
ENDSEC
  0
SECTION
  2
BLOCKS
  0
BLOCK
  5
20
330
1F
100
AcDbEntity
  8
0
100
AcDbBlockBegin
  2
*MODEL_SPACE
 70
     0
 10
0.0
 20
0.0
 30
0.0
  3
*MODEL_SPACE
  1

  0
ENDBLK
  5
21
330
1F
100
AcDbEntity
  8
0
100
AcDbBlockEnd
  0
BLOCK
  5
1C
330
1B
100
AcDbEntity
 67
     1
  8
0
100
AcDbBlockBegin
  2
*PAPER_SPACE
 70
     0
 10
0.0
 20
0.0
 30
0.0
  3
*PAPER_SPACE
  1

  0
ENDBLK
  5
1D
330
1B
100
AcDbEntity
 67
     1
  8
0
100
AcDbBlockEnd
  0
BLOCK
  5
A8
330
A7
100
AcDbEntity
  8
0
100
AcDbBlockBegin
  2
_OPEN
 70
     0
 10
0.0
 20
0.0
 30
0.0
  3
_OPEN
  1

  0
LINE
  5
AA
330
A7
100
AcDbEntity
  8
0
  6
BYBLOCK
 62
     0
100
AcDbLine
 10
-1.0
 20
0.166667
 30
0.0
 11
0.0
 21
0.0
 31
0.0
  0
LINE
  5
AB
330
A7
100
AcDbEntity
  8
0
  6
BYBLOCK
 62
     0
100
AcDbLine
 10
-1.0
 20
-0.166667
 30
0.0
 11
0.0
 21
0.0
 31
0.0
  0
LINE
  5
AC
330
A7
100
AcDbEntity
  8
0
  6
BYBLOCK
 62
     0
100
AcDbLine
 10
0.0
 20
0.0
 30
0.0
 11
-1.0
 21
0.0
 31
0.0
  0
ENDBLK
  5
A9
330
A7
100
AcDbEntity
  8
0
100
AcDbBlockEnd
  0
BLOCK
  5
11F
330
AF
100
AcDbEntity
  8
0
100
AcDbBlockBegin
  2
CENTERLINE1
 70
     0
 10
0.0
 20
0.0
 30
0.0
  3
CENTERLINE1
  1

  0
LINE
  5
B0
330
AF
100
AcDbEntity
  8
0
  6
CONTINUOUS
 62
     4
100
AcDbLine
 10
305.305064
 20
156.6296
 30
0.0
 11
305.305064
 21
157.4296
 31
0.0
  0
LINE
  5
B1
330
AF
100
AcDbEntity
  8
0
  6
CONTINUOUS
 62
     4
100
AcDbLine
 10
305.305064
 20
69.401028
 30
0.0
 11
305.305064
 21
64.5296
 31
0.0
  0
LINE
  5
B2
330
AF
100
AcDbEntity
  8
0
  6
CONTINUOUS
 62
     4
100
AcDbLine
 10
305.305064
 20
156.1296
 30
0.0
 11
305.305064
 21
151.258171
 31
0.0
  0
LINE
  5
B3
330
AF
100
AcDbEntity
  8
0
  6
CONTINUOUS
 62
     4
100
AcDbLine
 10
305.305064
 20
150.758171
 30
0.0
 11
305.305064
 21
149.958171
 31
0.0
  0
LINE
  5
B4
330
AF
100
AcDbEntity
  8
0
  6
CONTINUOUS
 62
     4
100
AcDbLine
 10
305.305064
 20
149.458171
 30
0.0
 11
305.305064
 21
144.586743
 31
0.0
  0
LINE
  5
B5
330
AF
100
AcDbEntity
  8
0
  6
CONTINUOUS
 62
     4
100
AcDbLine
 10
305.305064
 20
144.086743
 30
0.0
 11
305.305064
 21
143.286743
 31
0.0
  0
LINE
  5
B6
330
AF
100
AcDbEntity
  8
0
  6
CONTINUOUS
 62
     4
100
AcDbLine
 10
305.305064
 20
142.786743
 30
0.0
 11
305.305064
 21
137.915314
 31
0.0
  0
LINE
  5
B7
330
AF
100
AcDbEntity
  8
0
  6
CONTINUOUS
 62
     4
100
AcDbLine
 10
305.305064
 20
137.415314
 30
0.0
 11
305.305064
 21
136.615314
 31
0.0
  0
LINE
  5
B8
330
AF
100
AcDbEntity
  8
0
  6
CONTINUOUS
 62
     4
100
AcDbLine
 10
305.305064
 20
136.115314
 30
0.0
 11
305.305064
 21
131.243885
 31
0.0
  0
LINE
  5
B9
330
AF
100
AcDbEntity
  8
0
  6
CONTINUOUS
 62
     4
100
AcDbLine
 10
305.305064
 20
130.743885
 30
0.0
 11
305.305064
 21
129.943885
 31
0.0
  0
LINE
  5
BA
330
AF
100
AcDbEntity
  8
0
  6
CONTINUOUS
 62
     4
100
AcDbLine
 10
305.305064
 20
129.443885
 30
0.0
 11
305.305064
 21
124.572457
 31
0.0
  0
LINE
  5
BB
330
AF
100
AcDbEntity
  8
0
  6
CONTINUOUS
 62
     4
100
AcDbLine
 10
305.305064
 20
124.072457
 30
0.0
 11
305.305064
 21
123.272457
 31
0.0
  0
LINE
  5
BC
330
AF
100
AcDbEntity
  8
0
  6
CONTINUOUS
 62
     4
100
AcDbLine
 10
305.305064
 20
122.772457
 30
0.0
 11
305.305064
 21
117.901028
 31
0.0
  0
LINE
  5
BD
330
AF
100
AcDbEntity
  8
0
  6
CONTINUOUS
 62
     4
100
AcDbLine
 10
305.305064
 20
117.401028
 30
0.0
 11
305.305064
 21
116.601028
 31
0.0
  0
LINE
  5
BE
330
AF
100
AcDbEntity
  8
0
  6
CONTINUOUS
 62
     4
100
AcDbLine
 10
305.305064
 20
116.101028
 30
0.0
 11
305.305064
 21
111.2296
 31
0.0
  0
LINE
  5
BF
330
AF
100
AcDbEntity
  8
0
  6
CONTINUOUS
 62
     4
100
AcDbLine
 10
305.305064
 20
110.7296
 30
0.0
 11
305.305064
 21
109.9296
 31
0.0
  0
LINE
  5
C0
330
AF
100
AcDbEntity
  8
0
  6
CONTINUOUS
 62
     4
100
AcDbLine
 10
305.305064
 20
109.4296
 30
0.0
 11
305.305064
 21
104.558171
 31
0.0
  0
LINE
  5
C1
330
AF
100
AcDbEntity
  8
0
  6
CONTINUOUS
 62
     4
100
AcDbLine
 10
305.305064
 20
104.058171
 30
0.0
 11
305.305064
 21
103.258171
 31
0.0
  0
LINE
  5
C2
330
AF
100
AcDbEntity
  8
0
  6
CONTINUOUS
 62
     4
100
AcDbLine
 10
305.305064
 20
102.758171
 30
0.0
 11
305.305064
 21
97.886743
 31
0.0
  0
LINE
  5
C3
330
AF
100
AcDbEntity
  8
0
  6
CONTINUOUS
 62
     4
100
AcDbLine
 10
305.305064
 20
97.386743
 30
0.0
 11
305.305064
 21
96.586743
 31
0.0
  0
LINE
  5
C4
330
AF
100
AcDbEntity
  8
0
  6
CONTINUOUS
 62
     4
100
AcDbLine
 10
305.305064
 20
96.086743
 30
0.0
 11
305.305064
 21
91.215314
 31
0.0
  0
LINE
  5
C5
330
AF
100
AcDbEntity
  8
0
  6
CONTINUOUS
 62
     4
100
AcDbLine
 10
305.305064
 20
90.715314
 30
0.0
 11
305.305064
 21
89.915314
 31
0.0
  0
LINE
  5
C6
330
AF
100
AcDbEntity
  8
0
  6
CONTINUOUS
 62
     4
100
AcDbLine
 10
305.305064
 20
89.415314
 30
0.0
 11
305.305064
 21
84.543885
 31
0.0
  0
LINE
  5
C7
330
AF
100
AcDbEntity
  8
0
  6
CONTINUOUS
 62
     4
100
AcDbLine
 10
305.305064
 20
84.043885
 30
0.0
 11
305.305064
 21
83.243885
 31
0.0
  0
LINE
  5
C8
330
AF
100
AcDbEntity
  8
0
  6
CONTINUOUS
 62
     4
100
AcDbLine
 10
305.305064
 20
82.743885
 30
0.0
 11
305.305064
 21
77.872457
 31
0.0
  0
LINE
  5
C9
330
AF
100
AcDbEntity
  8
0
  6
CONTINUOUS
 62
     4
100
AcDbLine
 10
305.305064
 20
77.372457
 30
0.0
 11
305.305064
 21
76.572457
 31
0.0
  0
LINE
  5
CA
330
AF
100
AcDbEntity
  8
0
  6
CONTINUOUS
 62
     4
100
AcDbLine
 10
305.305064
 20
76.072457
 30
0.0
 11
305.305064
 21
71.201028
 31
0.0
  0
LINE
  5
CB
330
AF
100
AcDbEntity
  8
0
  6
CONTINUOUS
 62
     4
100
AcDbLine
 10
305.305064
 20
70.701028
 30
0.0
 11
305.305064
 21
69.901028
 31
0.0
  0
LINE
  5
CC
330
AF
100
AcDbEntity
  8
0
  6
CONTINUOUS
 62
     4
100
AcDbLine
 10
305.305064
 20
157.9296
 30
0.0
 11
305.305064
 21
162.801028
 31
0.0
  0
LINE
  5
CD
330
AF
100
AcDbEntity
  8
0
  6
CONTINUOUS
 62
     4
100
AcDbLine
 10
305.305064
 20
163.301028
 30
0.0
 11
305.305064
 21
164.101028
 31
0.0
  0
LINE
  5
CE
330
AF
100
AcDbEntity
  8
0
  6
CONTINUOUS
 62
     4
100
AcDbLine
 10
305.305064
 20
164.601028
 30
0.0
 11
305.305064
 21
169.472457
 31
0.0
  0
LINE
  5
CF
330
AF
100
AcDbEntity
  8
0
  6
CONTINUOUS
 62
     4
100
AcDbLine
 10
305.305064
 20
169.972457
 30
0.0
 11
305.305064
 21
170.772457
 31
0.0
  0
LINE
  5
D0
330
AF
100
AcDbEntity
  8
0
  6
CONTINUOUS
 62
     4
100
AcDbLine
 10
305.305064
 20
171.272457
 30
0.0
 11
305.305064
 21
176.143885
 31
0.0
  0
LINE
  5
D1
330
AF
100
AcDbEntity
  8
0
  6
CONTINUOUS
 62
     4
100
AcDbLine
 10
305.305064
 20
176.643885
 30
0.0
 11
305.305064
 21
177.443885
 31
0.0
  0
LINE
  5
D2
330
AF
100
AcDbEntity
  8
0
  6
CONTINUOUS
 62
     4
100
AcDbLine
 10
305.305064
 20
177.943885
 30
0.0
 11
305.305064
 21
182.815314
 31
0.0
  0
LINE
  5
D3
330
AF
100
AcDbEntity
  8
0
  6
CONTINUOUS
 62
     4
100
AcDbLine
 10
305.305064
 20
183.315314
 30
0.0
 11
305.305064
 21
184.115314
 31
0.0
  0
LINE
  5
D4
330
AF
100
AcDbEntity
  8
0
  6
CONTINUOUS
 62
     4
100
AcDbLine
 10
305.305064
 20
184.615314
 30
0.0
 11
305.305064
 21
189.486743
 31
0.0
  0
LINE
  5
D5
330
AF
100
AcDbEntity
  8
0
  6
CONTINUOUS
 62
     4
100
AcDbLine
 10
305.305064
 20
189.986743
 30
0.0
 11
305.305064
 21
190.786743
 31
0.0
  0
LINE
  5
D6
330
AF
100
AcDbEntity
  8
0
  6
CONTINUOUS
 62
     4
100
AcDbLine
 10
305.305064
 20
191.286743
 30
0.0
 11
305.305064
 21
196.158171
 31
0.0
  0
LINE
  5
D7
330
AF
100
AcDbEntity
  8
0
  6
CONTINUOUS
 62
     4
100
AcDbLine
 10
305.305064
 20
196.658171
 30
0.0
 11
305.305064
 21
197.458171
 31
0.0
  0
LINE
  5
D8
330
AF
100
AcDbEntity
  8
0
  6
CONTINUOUS
 62
     4
100
AcDbLine
 10
305.305064
 20
197.958171
 30
0.0
 11
305.305064
 21
202.8296
 31
0.0
  0
LINE
  5
D9
330
AF
100
AcDbEntity
  8
0
  6
CONTINUOUS
 62
     4
100
AcDbLine
 10
305.305064
 20
203.3296
 30
0.0
 11
305.305064
 21
204.1296
 31
0.0
  0
LINE
  5
DA
330
AF
100
AcDbEntity
  8
0
  6
CONTINUOUS
 62
     4
100
AcDbLine
 10
305.305064
 20
204.6296
 30
0.0
 11
305.305064
 21
209.501028
 31
0.0
  0
LINE
  5
DB
330
AF
100
AcDbEntity
  8
0
  6
CONTINUOUS
 62
     4
100
AcDbLine
 10
305.305064
 20
210.001028
 30
0.0
 11
305.305064
 21
210.801028
 31
0.0
  0
LINE
  5
DC
330
AF
100
AcDbEntity
  8
0
  6
CONTINUOUS
 62
     4
100
AcDbLine
 10
305.305064
 20
211.301028
 30
0.0
 11
305.305064
 21
216.172457
 31
0.0
  0
LINE
  5
DD
330
AF
100
AcDbEntity
  8
0
  6
CONTINUOUS
 62
     4
100
AcDbLine
 10
305.305064
 20
216.672457
 30
0.0
 11
305.305064
 21
217.472457
 31
0.0
  0
LINE
  5
DE
330
AF
100
AcDbEntity
  8
0
  6
CONTINUOUS
 62
     4
100
AcDbLine
 10
305.305064
 20
217.972457
 30
0.0
 11
305.305064
 21
222.843885
 31
0.0
  0
LINE
  5
DF
330
AF
100
AcDbEntity
  8
0
  6
CONTINUOUS
 62
     4
100
AcDbLine
 10
305.305064
 20
223.343885
 30
0.0
 11
305.305064
 21
224.143885
 31
0.0
  0
LINE
  5
E0
330
AF
100
AcDbEntity
  8
0
  6
CONTINUOUS
 62
     4
100
AcDbLine
 10
305.305064
 20
224.643885
 30
0.0
 11
305.305064
 21
229.515314
 31
0.0
  0
LINE
  5
E1
330
AF
100
AcDbEntity
  8
0
  6
CONTINUOUS
 62
     4
100
AcDbLine
 10
305.305064
 20
230.015314
 30
0.0
 11
305.305064
 21
230.815314
 31
0.0
  0
LINE
  5
E2
330
AF
100
AcDbEntity
  8
0
  6
CONTINUOUS
 62
     4
100
AcDbLine
 10
305.305064
 20
231.315314
 30
0.0
 11
305.305064
 21
236.186743
 31
0.0
  0
LINE
  5
E3
330
AF
100
AcDbEntity
  8
0
  6
CONTINUOUS
 62
     4
100
AcDbLine
 10
305.305064
 20
236.686743
 30
0.0
 11
305.305064
 21
237.486743
 31
0.0
  0
LINE
  5
E4
330
AF
100
AcDbEntity
  8
0
  6
CONTINUOUS
 62
     4
100
AcDbLine
 10
305.305064
 20
237.986743
 30
0.0
 11
305.305064
 21
242.858171
 31
0.0
  0
LINE
  5
E5
330
AF
100
AcDbEntity
  8
0
  6
CONTINUOUS
 62
     4
100
AcDbLine
 10
305.305064
 20
243.358171
 30
0.0
 11
305.305064
 21
244.158171
 31
0.0
  0
LINE
  5
E6
330
AF
100
AcDbEntity
  8
0
  6
CONTINUOUS
 62
     4
100
AcDbLine
 10
305.305064
 20
244.658171
 30
0.0
 11
305.305064
 21
249.5296
 31
0.0
  0
LINE
  5
E7
330
AF
100
AcDbEntity
  8
0
  6
CONTINUOUS
 62
     4
100
AcDbLine
 10
217.676492
 20
157.0296
 30
0.0
 11
212.805064
 21
157.0296
 31
0.0
  0
LINE
  5
E8
330
AF
100
AcDbEntity
  8
0
  6
CONTINUOUS
 62
     4
100
AcDbLine
 10
304.405064
 20
157.0296
 30
0.0
 11
299.533635
 21
157.0296
 31
0.0
  0
LINE
  5
E9
330
AF
100
AcDbEntity
  8
0
  6
CONTINUOUS
 62
     4
100
AcDbLine
 10
299.033635
 20
157.0296
 30
0.0
 11
298.233635
 21
157.0296
 31
0.0
  0
LINE
  5
EA
330
AF
100
AcDbEntity
  8
0
  6
CONTINUOUS
 62
     4
100
AcDbLine
 10
297.733635
 20
157.0296
 30
0.0
 11
292.862207
 21
157.0296
 31
0.0
  0
LINE
  5
EB
330
AF
100
AcDbEntity
  8
0
  6
CONTINUOUS
 62
     4
100
AcDbLine
 10
292.362207
 20
157.0296
 30
0.0
 11
291.562207
 21
157.0296
 31
0.0
  0
LINE
  5
EC
330
AF
100
AcDbEntity
  8
0
  6
CONTINUOUS
 62
     4
100
AcDbLine
 10
291.062207
 20
157.0296
 30
0.0
 11
286.190778
 21
157.0296
 31
0.0
  0
LINE
  5
ED
330
AF
100
AcDbEntity
  8
0
  6
CONTINUOUS
 62
     4
100
AcDbLine
 10
285.690778
 20
157.0296
 30
0.0
 11
284.890778
 21
157.0296
 31
0.0
  0
LINE
  5
EE
330
AF
100
AcDbEntity
  8
0
  6
CONTINUOUS
 62
     4
100
AcDbLine
 10
284.390778
 20
157.0296
 30
0.0
 11
279.51935
 21
157.0296
 31
0.0
  0
LINE
  5
EF
330
AF
100
AcDbEntity
  8
0
  6
CONTINUOUS
 62
     4
100
AcDbLine
 10
279.01935
 20
157.0296
 30
0.0
 11
278.21935
 21
157.0296
 31
0.0
  0
LINE
  5
F0
330
AF
100
AcDbEntity
  8
0
  6
CONTINUOUS
 62
     4
100
AcDbLine
 10
277.71935
 20
157.0296
 30
0.0
 11
272.847921
 21
157.0296
 31
0.0
  0
LINE
  5
F1
330
AF
100
AcDbEntity
  8
0
  6
CONTINUOUS
 62
     4
100
AcDbLine
 10
272.347921
 20
157.0296
 30
0.0
 11
271.547921
 21
157.0296
 31
0.0
  0
LINE
  5
F2
330
AF
100
AcDbEntity
  8
0
  6
CONTINUOUS
 62
     4
100
AcDbLine
 10
271.047921
 20
157.0296
 30
0.0
 11
266.176492
 21
157.0296
 31
0.0
  0
LINE
  5
F3
330
AF
100
AcDbEntity
  8
0
  6
CONTINUOUS
 62
     4
100
AcDbLine
 10
265.676492
 20
157.0296
 30
0.0
 11
264.876492
 21
157.0296
 31
0.0
  0
LINE
  5
F4
330
AF
100
AcDbEntity
  8
0
  6
CONTINUOUS
 62
     4
100
AcDbLine
 10
264.376492
 20
157.0296
 30
0.0
 11
259.505064
 21
157.0296
 31
0.0
  0
LINE
  5
F5
330
AF
100
AcDbEntity
  8
0
  6
CONTINUOUS
 62
     4
100
AcDbLine
 10
259.005064
 20
157.0296
 30
0.0
 11
258.205064
 21
157.0296
 31
0.0
  0
LINE
  5
F6
330
AF
100
AcDbEntity
  8
0
  6
CONTINUOUS
 62
     4
100
AcDbLine
 10
257.705064
 20
157.0296
 30
0.0
 11
252.833635
 21
157.0296
 31
0.0
  0
LINE
  5
F7
330
AF
100
AcDbEntity
  8
0
  6
CONTINUOUS
 62
     4
100
AcDbLine
 10
252.333635
 20
157.0296
 30
0.0
 11
251.533635
 21
157.0296
 31
0.0
  0
LINE
  5
F8
330
AF
100
AcDbEntity
  8
0
  6
CONTINUOUS
 62
     4
100
AcDbLine
 10
251.033635
 20
157.0296
 30
0.0
 11
246.162207
 21
157.0296
 31
0.0
  0
LINE
  5
F9
330
AF
100
AcDbEntity
  8
0
  6
CONTINUOUS
 62
     4
100
AcDbLine
 10
245.662207
 20
157.0296
 30
0.0
 11
244.862207
 21
157.0296
 31
0.0
  0
LINE
  5
FA
330
AF
100
AcDbEntity
  8
0
  6
CONTINUOUS
 62
     4
100
AcDbLine
 10
244.362207
 20
157.0296
 30
0.0
 11
239.490778
 21
157.0296
 31
0.0
  0
LINE
  5
FB
330
AF
100
AcDbEntity
  8
0
  6
CONTINUOUS
 62
     4
100
AcDbLine
 10
238.990778
 20
157.0296
 30
0.0
 11
238.190778
 21
157.0296
 31
0.0
  0
LINE
  5
FC
330
AF
100
AcDbEntity
  8
0
  6
CONTINUOUS
 62
     4
100
AcDbLine
 10
237.690778
 20
157.0296
 30
0.0
 11
232.81935
 21
157.0296
 31
0.0
  0
LINE
  5
FD
330
AF
100
AcDbEntity
  8
0
  6
CONTINUOUS
 62
     4
100
AcDbLine
 10
232.31935
 20
157.0296
 30
0.0
 11
231.51935
 21
157.0296
 31
0.0
  0
LINE
  5
FE
330
AF
100
AcDbEntity
  8
0
  6
CONTINUOUS
 62
     4
100
AcDbLine
 10
231.01935
 20
157.0296
 30
0.0
 11
226.147921
 21
157.0296
 31
0.0
  0
LINE
  5
FF
330
AF
100
AcDbEntity
  8
0
  6
CONTINUOUS
 62
     4
100
AcDbLine
 10
225.647921
 20
157.0296
 30
0.0
 11
224.847921
 21
157.0296
 31
0.0
  0
LINE
  5
100
330
AF
100
AcDbEntity
  8
0
  6
CONTINUOUS
 62
     4
100
AcDbLine
 10
224.347921
 20
157.0296
 30
0.0
 11
219.476492
 21
157.0296
 31
0.0
  0
LINE
  5
101
330
AF
100
AcDbEntity
  8
0
  6
CONTINUOUS
 62
     4
100
AcDbLine
 10
218.976492
 20
157.0296
 30
0.0
 11
218.176492
 21
157.0296
 31
0.0
  0
LINE
  5
102
330
AF
100
AcDbEntity
  8
0
  6
CONTINUOUS
 62
     4
100
AcDbLine
 10
304.905064
 20
157.0296
 30
0.0
 11
305.705064
 21
157.0296
 31
0.0
  0
LINE
  5
103
330
AF
100
AcDbEntity
  8
0
  6
CONTINUOUS
 62
     4
100
AcDbLine
 10
306.205064
 20
157.0296
 30
0.0
 11
311.076492
 21
157.0296
 31
0.0
  0
LINE
  5
104
330
AF
100
AcDbEntity
  8
0
  6
CONTINUOUS
 62
     4
100
AcDbLine
 10
311.576492
 20
157.0296
 30
0.0
 11
312.376492
 21
157.0296
 31
0.0
  0
LINE
  5
105
330
AF
100
AcDbEntity
  8
0
  6
CONTINUOUS
 62
     4
100
AcDbLine
 10
312.876492
 20
157.0296
 30
0.0
 11
317.747921
 21
157.0296
 31
0.0
  0
LINE
  5
106
330
AF
100
AcDbEntity
  8
0
  6
CONTINUOUS
 62
     4
100
AcDbLine
 10
318.247921
 20
157.0296
 30
0.0
 11
319.047921
 21
157.0296
 31
0.0
  0
LINE
  5
107
330
AF
100
AcDbEntity
  8
0
  6
CONTINUOUS
 62
     4
100
AcDbLine
 10
319.547921
 20
157.0296
 30
0.0
 11
324.41935
 21
157.0296
 31
0.0
  0
LINE
  5
108
330
AF
100
AcDbEntity
  8
0
  6
CONTINUOUS
 62
     4
100
AcDbLine
 10
324.91935
 20
157.0296
 30
0.0
 11
325.71935
 21
157.0296
 31
0.0
  0
LINE
  5
109
330
AF
100
AcDbEntity
  8
0
  6
CONTINUOUS
 62
     4
100
AcDbLine
 10
326.21935
 20
157.0296
 30
0.0
 11
331.090778
 21
157.0296
 31
0.0
  0
LINE
  5
10A
330
AF
100
AcDbEntity
  8
0
  6
CONTINUOUS
 62
     4
100
AcDbLine
 10
331.590778
 20
157.0296
 30
0.0
 11
332.390778
 21
157.0296
 31
0.0
  0
LINE
  5
10B
330
AF
100
AcDbEntity
  8
0
  6
CONTINUOUS
 62
     4
100
AcDbLine
 10
332.890778
 20
157.0296
 30
0.0
 11
337.762207
 21
157.0296
 31
0.0
  0
LINE
  5
10C
330
AF
100
AcDbEntity
  8
0
  6
CONTINUOUS
 62
     4
100
AcDbLine
 10
338.262207
 20
157.0296
 30
0.0
 11
339.062207
 21
157.0296
 31
0.0
  0
LINE
  5
10D
330
AF
100
AcDbEntity
  8
0
  6
CONTINUOUS
 62
     4
100
AcDbLine
 10
339.562207
 20
157.0296
 30
0.0
 11
344.433635
 21
157.0296
 31
0.0
  0
LINE
  5
10E
330
AF
100
AcDbEntity
  8
0
  6
CONTINUOUS
 62
     4
100
AcDbLine
 10
344.933635
 20
157.0296
 30
0.0
 11
345.733635
 21
157.0296
 31
0.0
  0
LINE
  5
10F
330
AF
100
AcDbEntity
  8
0
  6
CONTINUOUS
 62
     4
100
AcDbLine
 10
346.233635
 20
157.0296
 30
0.0
 11
351.105064
 21
157.0296
 31
0.0
  0
LINE
  5
110
330
AF
100
AcDbEntity
  8
0
  6
CONTINUOUS
 62
     4
100
AcDbLine
 10
351.605064
 20
157.0296
 30
0.0
 11
352.405064
 21
157.0296
 31
0.0
  0
LINE
  5
111
330
AF
100
AcDbEntity
  8
0
  6
CONTINUOUS
 62
     4
100
AcDbLine
 10
352.905064
 20
157.0296
 30
0.0
 11
357.776492
 21
157.0296
 31
0.0
  0
LINE
  5
112
330
AF
100
AcDbEntity
  8
0
  6
CONTINUOUS
 62
     4
100
AcDbLine
 10
358.276492
 20
157.0296
 30
0.0
 11
359.076492
 21
157.0296
 31
0.0
  0
LINE
  5
113
330
AF
100
AcDbEntity
  8
0
  6
CONTINUOUS
 62
     4
100
AcDbLine
 10
359.576492
 20
157.0296
 30
0.0
 11
364.447921
 21
157.0296
 31
0.0
  0
LINE
  5
114
330
AF
100
AcDbEntity
  8
0
  6
CONTINUOUS
 62
     4
100
AcDbLine
 10
364.947921
 20
157.0296
 30
0.0
 11
365.747921
 21
157.0296
 31
0.0
  0
LINE
  5
115
330
AF
100
AcDbEntity
  8
0
  6
CONTINUOUS
 62
     4
100
AcDbLine
 10
366.247921
 20
157.0296
 30
0.0
 11
371.11935
 21
157.0296
 31
0.0
  0
LINE
  5
116
330
AF
100
AcDbEntity
  8
0
  6
CONTINUOUS
 62
     4
100
AcDbLine
 10
371.61935
 20
157.0296
 30
0.0
 11
372.41935
 21
157.0296
 31
0.0
  0
LINE
  5
117
330
AF
100
AcDbEntity
  8
0
  6
CONTINUOUS
 62
     4
100
AcDbLine
 10
372.91935
 20
157.0296
 30
0.0
 11
377.790778
 21
157.0296
 31
0.0
  0
LINE
  5
118
330
AF
100
AcDbEntity
  8
0
  6
CONTINUOUS
 62
     4
100
AcDbLine
 10
378.290778
 20
157.0296
 30
0.0
 11
379.090778
 21
157.0296
 31
0.0
  0
LINE
  5
119
330
AF
100
AcDbEntity
  8
0
  6
CONTINUOUS
 62
     4
100
AcDbLine
 10
379.590778
 20
157.0296
 30
0.0
 11
384.462207
 21
157.0296
 31
0.0
  0
LINE
  5
11A
330
AF
100
AcDbEntity
  8
0
  6
CONTINUOUS
 62
     4
100
AcDbLine
 10
384.962207
 20
157.0296
 30
0.0
 11
385.762207
 21
157.0296
 31
0.0
  0
LINE
  5
11B
330
AF
100
AcDbEntity
  8
0
  6
CONTINUOUS
 62
     4
100
AcDbLine
 10
386.262207
 20
157.0296
 30
0.0
 11
391.133635
 21
157.0296
 31
0.0
  0
LINE
  5
11C
330
AF
100
AcDbEntity
  8
0
  6
CONTINUOUS
 62
     4
100
AcDbLine
 10
391.633635
 20
157.0296
 30
0.0
 11
392.433635
 21
157.0296
 31
0.0
  0
LINE
  5
11D
330
AF
100
AcDbEntity
  8
0
  6
CONTINUOUS
 62
     4
100
AcDbLine
 10
392.933635
 20
157.0296
 30
0.0
 11
397.805064
 21
157.0296
 31
0.0
  0
ENDBLK
  5
120
330
AF
100
AcDbEntity
  8
0
100
AcDbBlockEnd
  0
BLOCK
  5
17D
330
121
100
AcDbEntity
  8
0
100
AcDbBlockBegin
  2
CENTERLINE2
 70
     0
 10
0.0
 20
0.0
 30
0.0
  3
CENTERLINE2
  1

  0
LINE
  5
122
330
121
100
AcDbEntity
  8
0
  6
CONTINUOUS
 62
     4
100
AcDbLine
 10
121.981868
 20
156.6296
 30
0.0
 11
121.981868
 21
157.4296
 31
0.0
  0
LINE
  5
123
330
121
100
AcDbEntity
  8
0
  6
CONTINUOUS
 62
     4
100
AcDbLine
 10
121.981868
 20
78.683446
 30
0.0
 11
121.981868
 21
74.0296
 31
0.0
  0
LINE
  5
124
330
121
100
AcDbEntity
  8
0
  6
CONTINUOUS
 62
     4
100
AcDbLine
 10
121.981868
 20
156.1296
 30
0.0
 11
121.981868
 21
151.475754
 31
0.0
  0
LINE
  5
125
330
121
100
AcDbEntity
  8
0
  6
CONTINUOUS
 62
     4
100
AcDbLine
 10
121.981868
 20
150.975754
 30
0.0
 11
121.981868
 21
150.175754
 31
0.0
  0
LINE
  5
126
330
121
100
AcDbEntity
  8
0
  6
CONTINUOUS
 62
     4
100
AcDbLine
 10
121.981868
 20
149.675754
 30
0.0
 11
121.981868
 21
145.021907
 31
0.0
  0
LINE
  5
127
330
121
100
AcDbEntity
  8
0
  6
CONTINUOUS
 62
     4
100
AcDbLine
 10
121.981868
 20
144.521907
 30
0.0
 11
121.981868
 21
143.721907
 31
0.0
  0
LINE
  5
128
330
121
100
AcDbEntity
  8
0
  6
CONTINUOUS
 62
     4
100
AcDbLine
 10
121.981868
 20
143.221907
 30
0.0
 11
121.981868
 21
138.568061
 31
0.0
  0
LINE
  5
129
330
121
100
AcDbEntity
  8
0
  6
CONTINUOUS
 62
     4
100
AcDbLine
 10
121.981868
 20
138.068061
 30
0.0
 11
121.981868
 21
137.268061
 31
0.0
  0
LINE
  5
12A
330
121
100
AcDbEntity
  8
0
  6
CONTINUOUS
 62
     4
100
AcDbLine
 10
121.981868
 20
136.768061
 30
0.0
 11
121.981868
 21
132.114215
 31
0.0
  0
LINE
  5
12B
330
121
100
AcDbEntity
  8
0
  6
CONTINUOUS
 62
     4
100
AcDbLine
 10
121.981868
 20
131.614215
 30
0.0
 11
121.981868
 21
130.814215
 31
0.0
  0
LINE
  5
12C
330
121
100
AcDbEntity
  8
0
  6
CONTINUOUS
 62
     4
100
AcDbLine
 10
121.981868
 20
130.314215
 30
0.0
 11
121.981868
 21
125.660369
 31
0.0
  0
LINE
  5
12D
330
121
100
AcDbEntity
  8
0
  6
CONTINUOUS
 62
     4
100
AcDbLine
 10
121.981868
 20
125.160369
 30
0.0
 11
121.981868
 21
124.360369
 31
0.0
  0
LINE
  5
12E
330
121
100
AcDbEntity
  8
0
  6
CONTINUOUS
 62
     4
100
AcDbLine
 10
121.981868
 20
123.860369
 30
0.0
 11
121.981868
 21
119.206523
 31
0.0
  0
LINE
  5
12F
330
121
100
AcDbEntity
  8
0
  6
CONTINUOUS
 62
     4
100
AcDbLine
 10
121.981868
 20
118.706523
 30
0.0
 11
121.981868
 21
117.906523
 31
0.0
  0
LINE
  5
130
330
121
100
AcDbEntity
  8
0
  6
CONTINUOUS
 62
     4
100
AcDbLine
 10
121.981868
 20
117.406523
 30
0.0
 11
121.981868
 21
112.752677
 31
0.0
  0
LINE
  5
131
330
121
100
AcDbEntity
  8
0
  6
CONTINUOUS
 62
     4
100
AcDbLine
 10
121.981868
 20
112.252677
 30
0.0
 11
121.981868
 21
111.452677
 31
0.0
  0
LINE
  5
132
330
121
100
AcDbEntity
  8
0
  6
CONTINUOUS
 62
     4
100
AcDbLine
 10
121.981868
 20
110.952677
 30
0.0
 11
121.981868
 21
106.29883
 31
0.0
  0
LINE
  5
133
330
121
100
AcDbEntity
  8
0
  6
CONTINUOUS
 62
     4
100
AcDbLine
 10
121.981868
 20
105.79883
 30
0.0
 11
121.981868
 21
104.99883
 31
0.0
  0
LINE
  5
134
330
121
100
AcDbEntity
  8
0
  6
CONTINUOUS
 62
     4
100
AcDbLine
 10
121.981868
 20
104.49883
 30
0.0
 11
121.981868
 21
99.844984
 31
0.0
  0
LINE
  5
135
330
121
100
AcDbEntity
  8
0
  6
CONTINUOUS
 62
     4
100
AcDbLine
 10
121.981868
 20
99.344984
 30
0.0
 11
121.981868
 21
98.544984
 31
0.0
  0
LINE
  5
136
330
121
100
AcDbEntity
  8
0
  6
CONTINUOUS
 62
     4
100
AcDbLine
 10
121.981868
 20
98.044984
 30
0.0
 11
121.981868
 21
93.391138
 31
0.0
  0
LINE
  5
137
330
121
100
AcDbEntity
  8
0
  6
CONTINUOUS
 62
     4
100
AcDbLine
 10
121.981868
 20
92.891138
 30
0.0
 11
121.981868
 21
92.091138
 31
0.0
  0
LINE
  5
138
330
121
100
AcDbEntity
  8
0
  6
CONTINUOUS
 62
     4
100
AcDbLine
 10
121.981868
 20
91.591138
 30
0.0
 11
121.981868
 21
86.937292
 31
0.0
  0
LINE
  5
139
330
121
100
AcDbEntity
  8
0
  6
CONTINUOUS
 62
     4
100
AcDbLine
 10
121.981868
 20
86.437292
 30
0.0
 11
121.981868
 21
85.637292
 31
0.0
  0
LINE
  5
13A
330
121
100
AcDbEntity
  8
0
  6
CONTINUOUS
 62
     4
100
AcDbLine
 10
121.981868
 20
85.137292
 30
0.0
 11
121.981868
 21
80.483446
 31
0.0
  0
LINE
  5
13B
330
121
100
AcDbEntity
  8
0
  6
CONTINUOUS
 62
     4
100
AcDbLine
 10
121.981868
 20
79.983446
 30
0.0
 11
121.981868
 21
79.183446
 31
0.0
  0
LINE
  5
13C
330
121
100
AcDbEntity
  8
0
  6
CONTINUOUS
 62
     4
100
AcDbLine
 10
121.981868
 20
157.9296
 30
0.0
 11
121.981868
 21
162.583446
 31
0.0
  0
LINE
  5
13D
330
121
100
AcDbEntity
  8
0
  6
CONTINUOUS
 62
     4
100
AcDbLine
 10
121.981868
 20
163.083446
 30
0.0
 11
121.981868
 21
163.883446
 31
0.0
  0
LINE
  5
13E
330
121
100
AcDbEntity
  8
0
  6
CONTINUOUS
 62
     4
100
AcDbLine
 10
121.981868
 20
164.383446
 30
0.0
 11
121.981868
 21
169.037292
 31
0.0
  0
LINE
  5
13F
330
121
100
AcDbEntity
  8
0
  6
CONTINUOUS
 62
     4
100
AcDbLine
 10
121.981868
 20
169.537292
 30
0.0
 11
121.981868
 21
170.337292
 31
0.0
  0
LINE
  5
140
330
121
100
AcDbEntity
  8
0
  6
CONTINUOUS
 62
     4
100
AcDbLine
 10
121.981868
 20
170.837292
 30
0.0
 11
121.981868
 21
175.491138
 31
0.0
  0
LINE
  5
141
330
121
100
AcDbEntity
  8
0
  6
CONTINUOUS
 62
     4
100
AcDbLine
 10
121.981868
 20
175.991138
 30
0.0
 11
121.981868
 21
176.791138
 31
0.0
  0
LINE
  5
142
330
121
100
AcDbEntity
  8
0
  6
CONTINUOUS
 62
     4
100
AcDbLine
 10
121.981868
 20
177.291138
 30
0.0
 11
121.981868
 21
181.944984
 31
0.0
  0
LINE
  5
143
330
121
100
AcDbEntity
  8
0
  6
CONTINUOUS
 62
     4
100
AcDbLine
 10
121.981868
 20
182.444984
 30
0.0
 11
121.981868
 21
183.244984
 31
0.0
  0
LINE
  5
144
330
121
100
AcDbEntity
  8
0
  6
CONTINUOUS
 62
     4
100
AcDbLine
 10
121.981868
 20
183.744984
 30
0.0
 11
121.981868
 21
188.39883
 31
0.0
  0
LINE
  5
145
330
121
100
AcDbEntity
  8
0
  6
CONTINUOUS
 62
     4
100
AcDbLine
 10
121.981868
 20
188.89883
 30
0.0
 11
121.981868
 21
189.69883
 31
0.0
  0
LINE
  5
146
330
121
100
AcDbEntity
  8
0
  6
CONTINUOUS
 62
     4
100
AcDbLine
 10
121.981868
 20
190.19883
 30
0.0
 11
121.981868
 21
194.852677
 31
0.0
  0
LINE
  5
147
330
121
100
AcDbEntity
  8
0
  6
CONTINUOUS
 62
     4
100
AcDbLine
 10
121.981868
 20
195.352677
 30
0.0
 11
121.981868
 21
196.152677
 31
0.0
  0
LINE
  5
148
330
121
100
AcDbEntity
  8
0
  6
CONTINUOUS
 62
     4
100
AcDbLine
 10
121.981868
 20
196.652677
 30
0.0
 11
121.981868
 21
201.306523
 31
0.0
  0
LINE
  5
149
330
121
100
AcDbEntity
  8
0
  6
CONTINUOUS
 62
     4
100
AcDbLine
 10
121.981868
 20
201.806523
 30
0.0
 11
121.981868
 21
202.606523
 31
0.0
  0
LINE
  5
14A
330
121
100
AcDbEntity
  8
0
  6
CONTINUOUS
 62
     4
100
AcDbLine
 10
121.981868
 20
203.106523
 30
0.0
 11
121.981868
 21
207.760369
 31
0.0
  0
LINE
  5
14B
330
121
100
AcDbEntity
  8
0
  6
CONTINUOUS
 62
     4
100
AcDbLine
 10
121.981868
 20
208.260369
 30
0.0
 11
121.981868
 21
209.060369
 31
0.0
  0
LINE
  5
14C
330
121
100
AcDbEntity
  8
0
  6
CONTINUOUS
 62
     4
100
AcDbLine
 10
121.981868
 20
209.560369
 30
0.0
 11
121.981868
 21
214.214215
 31
0.0
  0
LINE
  5
14D
330
121
100
AcDbEntity
  8
0
  6
CONTINUOUS
 62
     4
100
AcDbLine
 10
121.981868
 20
214.714215
 30
0.0
 11
121.981868
 21
215.514215
 31
0.0
  0
LINE
  5
14E
330
121
100
AcDbEntity
  8
0
  6
CONTINUOUS
 62
     4
100
AcDbLine
 10
121.981868
 20
216.014215
 30
0.0
 11
121.981868
 21
220.668061
 31
0.0
  0
LINE
  5
14F
330
121
100
AcDbEntity
  8
0
  6
CONTINUOUS
 62
     4
100
AcDbLine
 10
121.981868
 20
221.168061
 30
0.0
 11
121.981868
 21
221.968061
 31
0.0
  0
LINE
  5
150
330
121
100
AcDbEntity
  8
0
  6
CONTINUOUS
 62
     4
100
AcDbLine
 10
121.981868
 20
222.468061
 30
0.0
 11
121.981868
 21
227.121907
 31
0.0
  0
LINE
  5
151
330
121
100
AcDbEntity
  8
0
  6
CONTINUOUS
 62
     4
100
AcDbLine
 10
121.981868
 20
227.621907
 30
0.0
 11
121.981868
 21
228.421907
 31
0.0
  0
LINE
  5
152
330
121
100
AcDbEntity
  8
0
  6
CONTINUOUS
 62
     4
100
AcDbLine
 10
121.981868
 20
228.921907
 30
0.0
 11
121.981868
 21
233.575754
 31
0.0
  0
LINE
  5
153
330
121
100
AcDbEntity
  8
0
  6
CONTINUOUS
 62
     4
100
AcDbLine
 10
121.981868
 20
234.075754
 30
0.0
 11
121.981868
 21
234.875754
 31
0.0
  0
LINE
  5
154
330
121
100
AcDbEntity
  8
0
  6
CONTINUOUS
 62
     4
100
AcDbLine
 10
121.981868
 20
235.375754
 30
0.0
 11
121.981868
 21
240.0296
 31
0.0
  0
LINE
  5
155
330
121
100
AcDbEntity
  8
0
  6
CONTINUOUS
 62
     4
100
AcDbLine
 10
43.635715
 20
157.0296
 30
0.0
 11
38.981868
 21
157.0296
 31
0.0
  0
LINE
  5
156
330
121
100
AcDbEntity
  8
0
  6
CONTINUOUS
 62
     4
100
AcDbLine
 10
121.081868
 20
157.0296
 30
0.0
 11
116.428022
 21
157.0296
 31
0.0
  0
LINE
  5
157
330
121
100
AcDbEntity
  8
0
  6
CONTINUOUS
 62
     4
100
AcDbLine
 10
115.928022
 20
157.0296
 30
0.0
 11
115.128022
 21
157.0296
 31
0.0
  0
LINE
  5
158
330
121
100
AcDbEntity
  8
0
  6
CONTINUOUS
 62
     4
100
AcDbLine
 10
114.628022
 20
157.0296
 30
0.0
 11
109.974176
 21
157.0296
 31
0.0
  0
LINE
  5
159
330
121
100
AcDbEntity
  8
0
  6
CONTINUOUS
 62
     4
100
AcDbLine
 10
109.474176
 20
157.0296
 30
0.0
 11
108.674176
 21
157.0296
 31
0.0
  0
LINE
  5
15A
330
121
100
AcDbEntity
  8
0
  6
CONTINUOUS
 62
     4
100
AcDbLine
 10
108.174176
 20
157.0296
 30
0.0
 11
103.52033
 21
157.0296
 31
0.0
  0
LINE
  5
15B
330
121
100
AcDbEntity
  8
0
  6
CONTINUOUS
 62
     4
100
AcDbLine
 10
103.02033
 20
157.0296
 30
0.0
 11
102.22033
 21
157.0296
 31
0.0
  0
LINE
  5
15C
330
121
100
AcDbEntity
  8
0
  6
CONTINUOUS
 62
     4
100
AcDbLine
 10
101.72033
 20
157.0296
 30
0.0
 11
97.066484
 21
157.0296
 31
0.0
  0
LINE
  5
15D
330
121
100
AcDbEntity
  8
0
  6
CONTINUOUS
 62
     4
100
AcDbLine
 10
96.566484
 20
157.0296
 30
0.0
 11
95.766484
 21
157.0296
 31
0.0
  0
LINE
  5
15E
330
121
100
AcDbEntity
  8
0
  6
CONTINUOUS
 62
     4
100
AcDbLine
 10
95.266484
 20
157.0296
 30
0.0
 11
90.612638
 21
157.0296
 31
0.0
  0
LINE
  5
15F
330
121
100
AcDbEntity
  8
0
  6
CONTINUOUS
 62
     4
100
AcDbLine
 10
90.112638
 20
157.0296
 30
0.0
 11
89.312638
 21
157.0296
 31
0.0
  0
LINE
  5
160
330
121
100
AcDbEntity
  8
0
  6
CONTINUOUS
 62
     4
100
AcDbLine
 10
88.812638
 20
157.0296
 30
0.0
 11
84.158791
 21
157.0296
 31
0.0
  0
LINE
  5
161
330
121
100
AcDbEntity
  8
0
  6
CONTINUOUS
 62
     4
100
AcDbLine
 10
83.658791
 20
157.0296
 30
0.0
 11
82.858791
 21
157.0296
 31
0.0
  0
LINE
  5
162
330
121
100
AcDbEntity
  8
0
  6
CONTINUOUS
 62
     4
100
AcDbLine
 10
82.358791
 20
157.0296
 30
0.0
 11
77.704945
 21
157.0296
 31
0.0
  0
LINE
  5
163
330
121
100
AcDbEntity
  8
0
  6
CONTINUOUS
 62
     4
100
AcDbLine
 10
77.204945
 20
157.0296
 30
0.0
 11
76.404945
 21
157.0296
 31
0.0
  0
LINE
  5
164
330
121
100
AcDbEntity
  8
0
  6
CONTINUOUS
 62
     4
100
AcDbLine
 10
75.904945
 20
157.0296
 30
0.0
 11
71.251099
 21
157.0296
 31
0.0
  0
LINE
  5
165
330
121
100
AcDbEntity
  8
0
  6
CONTINUOUS
 62
     4
100
AcDbLine
 10
70.751099
 20
157.0296
 30
0.0
 11
69.951099
 21
157.0296
 31
0.0
  0
LINE
  5
166
330
121
100
AcDbEntity
  8
0
  6
CONTINUOUS
 62
     4
100
AcDbLine
 10
69.451099
 20
157.0296
 30
0.0
 11
64.797253
 21
157.0296
 31
0.0
  0
LINE
  5
167
330
121
100
AcDbEntity
  8
0
  6
CONTINUOUS
 62
     4
100
AcDbLine
 10
64.297253
 20
157.0296
 30
0.0
 11
63.497253
 21
157.0296
 31
0.0
  0
LINE
  5
168
330
121
100
AcDbEntity
  8
0
  6
CONTINUOUS
 62
     4
100
AcDbLine
 10
62.997253
 20
157.0296
 30
0.0
 11
58.343407
 21
157.0296
 31
0.0
  0
LINE
  5
169
330
121
100
AcDbEntity
  8
0
  6
CONTINUOUS
 62
     4
100
AcDbLine
 10
57.843407
 20
157.0296
 30
0.0
 11
57.043407
 21
157.0296
 31
0.0
  0
LINE
  5
16A
330
121
100
AcDbEntity
  8
0
  6
CONTINUOUS
 62
     4
100
AcDbLine
 10
56.543407
 20
157.0296
 30
0.0
 11
51.889561
 21
157.0296
 31
0.0
  0
LINE
  5
16B
330
121
100
AcDbEntity
  8
0
  6
CONTINUOUS
 62
     4
100
AcDbLine
 10
51.389561
 20
157.0296
 30
0.0
 11
50.589561
 21
157.0296
 31
0.0
  0
LINE
  5
16C
330
121
100
AcDbEntity
  8
0
  6
CONTINUOUS
 62
     4
100
AcDbLine
 10
50.089561
 20
157.0296
 30
0.0
 11
45.435715
 21
157.0296
 31
0.0
  0
LINE
  5
16D
330
121
100
AcDbEntity
  8
0
  6
CONTINUOUS
 62
     4
100
AcDbLine
 10
44.935715
 20
157.0296
 30
0.0
 11
44.135715
 21
157.0296
 31
0.0
  0
LINE
  5
16E
330
121
100
AcDbEntity
  8
0
  6
CONTINUOUS
 62
     4
100
AcDbLine
 10
121.581868
 20
157.0296
 30
0.0
 11
122.381868
 21
157.0296
 31
0.0
  0
LINE
  5
16F
330
121
100
AcDbEntity
  8
0
  6
CONTINUOUS
 62
     4
100
AcDbLine
 10
122.881868
 20
157.0296
 30
0.0
 11
127.639011
 21
157.0296
 31
0.0
  0
LINE
  5
170
330
121
100
AcDbEntity
  8
0
  6
CONTINUOUS
 62
     4
100
AcDbLine
 10
128.139011
 20
157.0296
 30
0.0
 11
128.939011
 21
157.0296
 31
0.0
  0
LINE
  5
171
330
121
100
AcDbEntity
  8
0
  6
CONTINUOUS
 62
     4
100
AcDbLine
 10
129.439011
 20
157.0296
 30
0.0
 11
134.196154
 21
157.0296
 31
0.0
  0
LINE
  5
172
330
121
100
AcDbEntity
  8
0
  6
CONTINUOUS
 62
     4
100
AcDbLine
 10
134.696154
 20
157.0296
 30
0.0
 11
135.496154
 21
157.0296
 31
0.0
  0
LINE
  5
173
330
121
100
AcDbEntity
  8
0
  6
CONTINUOUS
 62
     4
100
AcDbLine
 10
135.996154
 20
157.0296
 30
0.0
 11
140.753297
 21
157.0296
 31
0.0
  0
LINE
  5
174
330
121
100
AcDbEntity
  8
0
  6
CONTINUOUS
 62
     4
100
AcDbLine
 10
141.253297
 20
157.0296
 30
0.0
 11
142.053297
 21
157.0296
 31
0.0
  0
LINE
  5
175
330
121
100
AcDbEntity
  8
0
  6
CONTINUOUS
 62
     4
100
AcDbLine
 10
142.553297
 20
157.0296
 30
0.0
 11
147.31044
 21
157.0296
 31
0.0
  0
LINE
  5
176
330
121
100
AcDbEntity
  8
0
  6
CONTINUOUS
 62
     4
100
AcDbLine
 10
147.81044
 20
157.0296
 30
0.0
 11
148.61044
 21
157.0296
 31
0.0
  0
LINE
  5
177
330
121
100
AcDbEntity
  8
0
  6
CONTINUOUS
 62
     4
100
AcDbLine
 10
149.11044
 20
157.0296
 30
0.0
 11
153.867583
 21
157.0296
 31
0.0
  0
LINE
  5
178
330
121
100
AcDbEntity
  8
0
  6
CONTINUOUS
 62
     4
100
AcDbLine
 10
154.367583
 20
157.0296
 30
0.0
 11
155.167583
 21
157.0296
 31
0.0
  0
LINE
  5
179
330
121
100
AcDbEntity
  8
0
  6
CONTINUOUS
 62
     4
100
AcDbLine
 10
155.667583
 20
157.0296
 30
0.0
 11
160.424726
 21
157.0296
 31
0.0
  0
LINE
  5
17A
330
121
100
AcDbEntity
  8
0
  6
CONTINUOUS
 62
     4
100
AcDbLine
 10
160.924726
 20
157.0296
 30
0.0
 11
161.724726
 21
157.0296
 31
0.0
  0
LINE
  5
17B
330
121
100
AcDbEntity
  8
0
  6
CONTINUOUS
 62
     4
100
AcDbLine
 10
162.224726
 20
157.0296
 30
0.0
 11
166.981868
 21
157.0296
 31
0.0
  0
ENDBLK
  5
17E
330
121
100
AcDbEntity
  8
0
100
AcDbBlockEnd
  0
BLOCK
  5
1D7
330
17F
100
AcDbEntity
  8
0
100
AcDbBlockBegin
  2
CENTERLINE3
 70
     0
 10
0.0
 20
0.0
 30
0.0
  3
CENTERLINE3
  1

  0
LINE
  5
180
330
17F
100
AcDbEntity
  8
0
  6
CONTINUOUS
 62
     4
100
AcDbLine
 10
305.305064
 20
308.949287
 30
0.0
 11
305.305064
 21
309.749287
 31
0.0
  0
LINE
  5
181
330
17F
100
AcDbEntity
  8
0
  6
CONTINUOUS
 62
     4
100
AcDbLine
 10
305.305064
 20
279.729287
 30
0.0
 11
305.305064
 21
274.349287
 31
0.0
  0
LINE
  5
182
330
17F
100
AcDbEntity
  8
0
  6
CONTINUOUS
 62
     4
100
AcDbLine
 10
305.305064
 20
308.449287
 30
0.0
 11
305.305064
 21
303.069287
 31
0.0
  0
LINE
  5
183
330
17F
100
AcDbEntity
  8
0
  6
CONTINUOUS
 62
     4
100
AcDbLine
 10
305.305064
 20
302.569287
 30
0.0
 11
305.305064
 21
301.769287
 31
0.0
  0
LINE
  5
184
330
17F
100
AcDbEntity
  8
0
  6
CONTINUOUS
 62
     4
100
AcDbLine
 10
305.305064
 20
301.269287
 30
0.0
 11
305.305064
 21
295.889287
 31
0.0
  0
LINE
  5
185
330
17F
100
AcDbEntity
  8
0
  6
CONTINUOUS
 62
     4
100
AcDbLine
 10
305.305064
 20
295.389287
 30
0.0
 11
305.305064
 21
294.589287
 31
0.0
  0
LINE
  5
186
330
17F
100
AcDbEntity
  8
0
  6
CONTINUOUS
 62
     4
100
AcDbLine
 10
305.305064
 20
294.089287
 30
0.0
 11
305.305064
 21
288.709287
 31
0.0
  0
LINE
  5
187
330
17F
100
AcDbEntity
  8
0
  6
CONTINUOUS
 62
     4
100
AcDbLine
 10
305.305064
 20
288.209287
 30
0.0
 11
305.305064
 21
287.409287
 31
0.0
  0
LINE
  5
188
330
17F
100
AcDbEntity
  8
0
  6
CONTINUOUS
 62
     4
100
AcDbLine
 10
305.305064
 20
286.909287
 30
0.0
 11
305.305064
 21
281.529287
 31
0.0
  0
LINE
  5
189
330
17F
100
AcDbEntity
  8
0
  6
CONTINUOUS
 62
     4
100
AcDbLine
 10
305.305064
 20
281.029287
 30
0.0
 11
305.305064
 21
280.229287
 31
0.0
  0
LINE
  5
18A
330
17F
100
AcDbEntity
  8
0
  6
CONTINUOUS
 62
     4
100
AcDbLine
 10
305.305064
 20
310.249287
 30
0.0
 11
305.305064
 21
314.903133
 31
0.0
  0
LINE
  5
18B
330
17F
100
AcDbEntity
  8
0
  6
CONTINUOUS
 62
     4
100
AcDbLine
 10
305.305064
 20
315.403133
 30
0.0
 11
305.305064
 21
316.203133
 31
0.0
  0
LINE
  5
18C
330
17F
100
AcDbEntity
  8
0
  6
CONTINUOUS
 62
     4
100
AcDbLine
 10
305.305064
 20
316.703133
 30
0.0
 11
305.305064
 21
321.356979
 31
0.0
  0
LINE
  5
18D
330
17F
100
AcDbEntity
  8
0
  6
CONTINUOUS
 62
     4
100
AcDbLine
 10
305.305064
 20
321.856979
 30
0.0
 11
305.305064
 21
322.656979
 31
0.0
  0
LINE
  5
18E
330
17F
100
AcDbEntity
  8
0
  6
CONTINUOUS
 62
     4
100
AcDbLine
 10
305.305064
 20
323.156979
 30
0.0
 11
305.305064
 21
327.810826
 31
0.0
  0
LINE
  5
18F
330
17F
100
AcDbEntity
  8
0
  6
CONTINUOUS
 62
     4
100
AcDbLine
 10
305.305064
 20
328.310826
 30
0.0
 11
305.305064
 21
329.110826
 31
0.0
  0
LINE
  5
190
330
17F
100
AcDbEntity
  8
0
  6
CONTINUOUS
 62
     4
100
AcDbLine
 10
305.305064
 20
329.610826
 30
0.0
 11
305.305064
 21
334.264672
 31
0.0
  0
LINE
  5
191
330
17F
100
AcDbEntity
  8
0
  6
CONTINUOUS
 62
     4
100
AcDbLine
 10
305.305064
 20
334.764672
 30
0.0
 11
305.305064
 21
335.564672
 31
0.0
  0
LINE
  5
192
330
17F
100
AcDbEntity
  8
0
  6
CONTINUOUS
 62
     4
100
AcDbLine
 10
305.305064
 20
336.064672
 30
0.0
 11
305.305064
 21
340.718518
 31
0.0
  0
LINE
  5
193
330
17F
100
AcDbEntity
  8
0
  6
CONTINUOUS
 62
     4
100
AcDbLine
 10
305.305064
 20
341.218518
 30
0.0
 11
305.305064
 21
342.018518
 31
0.0
  0
LINE
  5
194
330
17F
100
AcDbEntity
  8
0
  6
CONTINUOUS
 62
     4
100
AcDbLine
 10
305.305064
 20
342.518518
 30
0.0
 11
305.305064
 21
347.172364
 31
0.0
  0
LINE
  5
195
330
17F
100
AcDbEntity
  8
0
  6
CONTINUOUS
 62
     4
100
AcDbLine
 10
305.305064
 20
347.672364
 30
0.0
 11
305.305064
 21
348.472364
 31
0.0
  0
LINE
  5
196
330
17F
100
AcDbEntity
  8
0
  6
CONTINUOUS
 62
     4
100
AcDbLine
 10
305.305064
 20
348.972364
 30
0.0
 11
305.305064
 21
353.62621
 31
0.0
  0
LINE
  5
197
330
17F
100
AcDbEntity
  8
0
  6
CONTINUOUS
 62
     4
100
AcDbLine
 10
305.305064
 20
354.12621
 30
0.0
 11
305.305064
 21
354.92621
 31
0.0
  0
LINE
  5
198
330
17F
100
AcDbEntity
  8
0
  6
CONTINUOUS
 62
     4
100
AcDbLine
 10
305.305064
 20
355.42621
 30
0.0
 11
305.305064
 21
360.080056
 31
0.0
  0
LINE
  5
199
330
17F
100
AcDbEntity
  8
0
  6
CONTINUOUS
 62
     4
100
AcDbLine
 10
305.305064
 20
360.580056
 30
0.0
 11
305.305064
 21
361.380056
 31
0.0
  0
LINE
  5
19A
330
17F
100
AcDbEntity
  8
0
  6
CONTINUOUS
 62
     4
100
AcDbLine
 10
305.305064
 20
361.880056
 30
0.0
 11
305.305064
 21
366.533902
 31
0.0
  0
LINE
  5
19B
330
17F
100
AcDbEntity
  8
0
  6
CONTINUOUS
 62
     4
100
AcDbLine
 10
305.305064
 20
367.033902
 30
0.0
 11
305.305064
 21
367.833902
 31
0.0
  0
LINE
  5
19C
330
17F
100
AcDbEntity
  8
0
  6
CONTINUOUS
 62
     4
100
AcDbLine
 10
305.305064
 20
368.333902
 30
0.0
 11
305.305064
 21
372.987749
 31
0.0
  0
LINE
  5
19D
330
17F
100
AcDbEntity
  8
0
  6
CONTINUOUS
 62
     4
100
AcDbLine
 10
305.305064
 20
373.487749
 30
0.0
 11
305.305064
 21
374.287749
 31
0.0
  0
LINE
  5
19E
330
17F
100
AcDbEntity
  8
0
  6
CONTINUOUS
 62
     4
100
AcDbLine
 10
305.305064
 20
374.787749
 30
0.0
 11
305.305064
 21
379.441595
 31
0.0
  0
LINE
  5
19F
330
17F
100
AcDbEntity
  8
0
  6
CONTINUOUS
 62
     4
100
AcDbLine
 10
305.305064
 20
379.941595
 30
0.0
 11
305.305064
 21
380.741595
 31
0.0
  0
LINE
  5
1A0
330
17F
100
AcDbEntity
  8
0
  6
CONTINUOUS
 62
     4
100
AcDbLine
 10
305.305064
 20
381.241595
 30
0.0
 11
305.305064
 21
385.895441
 31
0.0
  0
LINE
  5
1A1
330
17F
100
AcDbEntity
  8
0
  6
CONTINUOUS
 62
     4
100
AcDbLine
 10
305.305064
 20
386.395441
 30
0.0
 11
305.305064
 21
387.195441
 31
0.0
  0
LINE
  5
1A2
330
17F
100
AcDbEntity
  8
0
  6
CONTINUOUS
 62
     4
100
AcDbLine
 10
305.305064
 20
387.695441
 30
0.0
 11
305.305064
 21
392.349287
 31
0.0
  0
LINE
  5
1A3
330
17F
100
AcDbEntity
  8
0
  6
CONTINUOUS
 62
     4
100
AcDbLine
 10
226.95891
 20
309.349287
 30
0.0
 11
222.305064
 21
309.349287
 31
0.0
  0
LINE
  5
1A4
330
17F
100
AcDbEntity
  8
0
  6
CONTINUOUS
 62
     4
100
AcDbLine
 10
304.405064
 20
309.349287
 30
0.0
 11
299.751218
 21
309.349287
 31
0.0
  0
LINE
  5
1A5
330
17F
100
AcDbEntity
  8
0
  6
CONTINUOUS
 62
     4
100
AcDbLine
 10
299.251218
 20
309.349287
 30
0.0
 11
298.451218
 21
309.349287
 31
0.0
  0
LINE
  5
1A6
330
17F
100
AcDbEntity
  8
0
  6
CONTINUOUS
 62
     4
100
AcDbLine
 10
297.951218
 20
309.349287
 30
0.0
 11
293.297371
 21
309.349287
 31
0.0
  0
LINE
  5
1A7
330
17F
100
AcDbEntity
  8
0
  6
CONTINUOUS
 62
     4
100
AcDbLine
 10
292.797371
 20
309.349287
 30
0.0
 11
291.997371
 21
309.349287
 31
0.0
  0
LINE
  5
1A8
330
17F
100
AcDbEntity
  8
0
  6
CONTINUOUS
 62
     4
100
AcDbLine
 10
291.497371
 20
309.349287
 30
0.0
 11
286.843525
 21
309.349287
 31
0.0
  0
LINE
  5
1A9
330
17F
100
AcDbEntity
  8
0
  6
CONTINUOUS
 62
     4
100
AcDbLine
 10
286.343525
 20
309.349287
 30
0.0
 11
285.543525
 21
309.349287
 31
0.0
  0
LINE
  5
1AA
330
17F
100
AcDbEntity
  8
0
  6
CONTINUOUS
 62
     4
100
AcDbLine
 10
285.043525
 20
309.349287
 30
0.0
 11
280.389679
 21
309.349287
 31
0.0
  0
LINE
  5
1AB
330
17F
100
AcDbEntity
  8
0
  6
CONTINUOUS
 62
     4
100
AcDbLine
 10
279.889679
 20
309.349287
 30
0.0
 11
279.089679
 21
309.349287
 31
0.0
  0
LINE
  5
1AC
330
17F
100
AcDbEntity
  8
0
  6
CONTINUOUS
 62
     4
100
AcDbLine
 10
278.589679
 20
309.349287
 30
0.0
 11
273.935833
 21
309.349287
 31
0.0
  0
LINE
  5
1AD
330
17F
100
AcDbEntity
  8
0
  6
CONTINUOUS
 62
     4
100
AcDbLine
 10
273.435833
 20
309.349287
 30
0.0
 11
272.635833
 21
309.349287
 31
0.0
  0
LINE
  5
1AE
330
17F
100
AcDbEntity
  8
0
  6
CONTINUOUS
 62
     4
100
AcDbLine
 10
272.135833
 20
309.349287
 30
0.0
 11
267.481987
 21
309.349287
 31
0.0
  0
LINE
  5
1AF
330
17F
100
AcDbEntity
  8
0
  6
CONTINUOUS
 62
     4
100
AcDbLine
 10
266.981987
 20
309.349287
 30
0.0
 11
266.181987
 21
309.349287
 31
0.0
  0
LINE
  5
1B0
330
17F
100
AcDbEntity
  8
0
  6
CONTINUOUS
 62
     4
100
AcDbLine
 10
265.681987
 20
309.349287
 30
0.0
 11
261.028141
 21
309.349287
 31
0.0
  0
LINE
  5
1B1
330
17F
100
AcDbEntity
  8
0
  6
CONTINUOUS
 62
     4
100
AcDbLine
 10
260.528141
 20
309.349287
 30
0.0
 11
259.728141
 21
309.349287
 31
0.0
  0
LINE
  5
1B2
330
17F
100
AcDbEntity
  8
0
  6
CONTINUOUS
 62
     4
100
AcDbLine
 10
259.228141
 20
309.349287
 30
0.0
 11
254.574295
 21
309.349287
 31
0.0
  0
LINE
  5
1B3
330
17F
100
AcDbEntity
  8
0
  6
CONTINUOUS
 62
     4
100
AcDbLine
 10
254.074295
 20
309.349287
 30
0.0
 11
253.274295
 21
309.349287
 31
0.0
  0
LINE
  5
1B4
330
17F
100
AcDbEntity
  8
0
  6
CONTINUOUS
 62
     4
100
AcDbLine
 10
252.774295
 20
309.349287
 30
0.0
 11
248.120448
 21
309.349287
 31
0.0
  0
LINE
  5
1B5
330
17F
100
AcDbEntity
  8
0
  6
CONTINUOUS
 62
     4
100
AcDbLine
 10
247.620448
 20
309.349287
 30
0.0
 11
246.820448
 21
309.349287
 31
0.0
  0
LINE
  5
1B6
330
17F
100
AcDbEntity
  8
0
  6
CONTINUOUS
 62
     4
100
AcDbLine
 10
246.320448
 20
309.349287
 30
0.0
 11
241.666602
 21
309.349287
 31
0.0
  0
LINE
  5
1B7
330
17F
100
AcDbEntity
  8
0
  6
CONTINUOUS
 62
     4
100
AcDbLine
 10
241.166602
 20
309.349287
 30
0.0
 11
240.366602
 21
309.349287
 31
0.0
  0
LINE
  5
1B8
330
17F
100
AcDbEntity
  8
0
  6
CONTINUOUS
 62
     4
100
AcDbLine
 10
239.866602
 20
309.349287
 30
0.0
 11
235.212756
 21
309.349287
 31
0.0
  0
LINE
  5
1B9
330
17F
100
AcDbEntity
  8
0
  6
CONTINUOUS
 62
     4
100
AcDbLine
 10
234.712756
 20
309.349287
 30
0.0
 11
233.912756
 21
309.349287
 31
0.0
  0
LINE
  5
1BA
330
17F
100
AcDbEntity
  8
0
  6
CONTINUOUS
 62
     4
100
AcDbLine
 10
233.412756
 20
309.349287
 30
0.0
 11
228.75891
 21
309.349287
 31
0.0
  0
LINE
  5
1BB
330
17F
100
AcDbEntity
  8
0
  6
CONTINUOUS
 62
     4
100
AcDbLine
 10
228.25891
 20
309.349287
 30
0.0
 11
227.45891
 21
309.349287
 31
0.0
  0
LINE
  5
1BC
330
17F
100
AcDbEntity
  8
0
  6
CONTINUOUS
 62
     4
100
AcDbLine
 10
304.905064
 20
309.349287
 30
0.0
 11
305.705064
 21
309.349287
 31
0.0
  0
LINE
  5
1BD
330
17F
100
AcDbEntity
  8
0
  6
CONTINUOUS
 62
     4
100
AcDbLine
 10
306.205064
 20
309.349287
 30
0.0
 11
310.85891
 21
309.349287
 31
0.0
  0
LINE
  5
1BE
330
17F
100
AcDbEntity
  8
0
  6
CONTINUOUS
 62
     4
100
AcDbLine
 10
311.35891
 20
309.349287
 30
0.0
 11
312.15891
 21
309.349287
 31
0.0
  0
LINE
  5
1BF
330
17F
100
AcDbEntity
  8
0
  6
CONTINUOUS
 62
     4
100
AcDbLine
 10
312.65891
 20
309.349287
 30
0.0
 11
317.312756
 21
309.349287
 31
0.0
  0
LINE
  5
1C0
330
17F
100
AcDbEntity
  8
0
  6
CONTINUOUS
 62
     4
100
AcDbLine
 10
317.812756
 20
309.349287
 30
0.0
 11
318.612756
 21
309.349287
 31
0.0
  0
LINE
  5
1C1
330
17F
100
AcDbEntity
  8
0
  6
CONTINUOUS
 62
     4
100
AcDbLine
 10
319.112756
 20
309.349287
 30
0.0
 11
323.766602
 21
309.349287
 31
0.0
  0
LINE
  5
1C2
330
17F
100
AcDbEntity
  8
0
  6
CONTINUOUS
 62
     4
100
AcDbLine
 10
324.266602
 20
309.349287
 30
0.0
 11
325.066602
 21
309.349287
 31
0.0
  0
LINE
  5
1C3
330
17F
100
AcDbEntity
  8
0
  6
CONTINUOUS
 62
     4
100
AcDbLine
 10
325.566602
 20
309.349287
 30
0.0
 11
330.220448
 21
309.349287
 31
0.0
  0
LINE
  5
1C4
330
17F
100
AcDbEntity
  8
0
  6
CONTINUOUS
 62
     4
100
AcDbLine
 10
330.720448
 20
309.349287
 30
0.0
 11
331.520448
 21
309.349287
 31
0.0
  0
LINE
  5
1C5
330
17F
100
AcDbEntity
  8
0
  6
CONTINUOUS
 62
     4
100
AcDbLine
 10
332.020448
 20
309.349287
 30
0.0
 11
336.674295
 21
309.349287
 31
0.0
  0
LINE
  5
1C6
330
17F
100
AcDbEntity
  8
0
  6
CONTINUOUS
 62
     4
100
AcDbLine
 10
337.174295
 20
309.349287
 30
0.0
 11
337.974295
 21
309.349287
 31
0.0
  0
LINE
  5
1C7
330
17F
100
AcDbEntity
  8
0
  6
CONTINUOUS
 62
     4
100
AcDbLine
 10
338.474295
 20
309.349287
 30
0.0
 11
343.128141
 21
309.349287
 31
0.0
  0
LINE
  5
1C8
330
17F
100
AcDbEntity
  8
0
  6
CONTINUOUS
 62
     4
100
AcDbLine
 10
343.628141
 20
309.349287
 30
0.0
 11
344.428141
 21
309.349287
 31
0.0
  0
LINE
  5
1C9
330
17F
100
AcDbEntity
  8
0
  6
CONTINUOUS
 62
     4
100
AcDbLine
 10
344.928141
 20
309.349287
 30
0.0
 11
349.581987
 21
309.349287
 31
0.0
  0
LINE
  5
1CA
330
17F
100
AcDbEntity
  8
0
  6
CONTINUOUS
 62
     4
100
AcDbLine
 10
350.081987
 20
309.349287
 30
0.0
 11
350.881987
 21
309.349287
 31
0.0
  0
LINE
  5
1CB
330
17F
100
AcDbEntity
  8
0
  6
CONTINUOUS
 62
     4
100
AcDbLine
 10
351.381987
 20
309.349287
 30
0.0
 11
356.035833
 21
309.349287
 31
0.0
  0
LINE
  5
1CC
330
17F
100
AcDbEntity
  8
0
  6
CONTINUOUS
 62
     4
100
AcDbLine
 10
356.535833
 20
309.349287
 30
0.0
 11
357.335833
 21
309.349287
 31
0.0
  0
LINE
  5
1CD
330
17F
100
AcDbEntity
  8
0
  6
CONTINUOUS
 62
     4
100
AcDbLine
 10
357.835833
 20
309.349287
 30
0.0
 11
362.489679
 21
309.349287
 31
0.0
  0
LINE
  5
1CE
330
17F
100
AcDbEntity
  8
0
  6
CONTINUOUS
 62
     4
100
AcDbLine
 10
362.989679
 20
309.349287
 30
0.0
 11
363.789679
 21
309.349287
 31
0.0
  0
LINE
  5
1CF
330
17F
100
AcDbEntity
  8
0
  6
CONTINUOUS
 62
     4
100
AcDbLine
 10
364.289679
 20
309.349287
 30
0.0
 11
368.943525
 21
309.349287
 31
0.0
  0
LINE
  5
1D0
330
17F
100
AcDbEntity
  8
0
  6
CONTINUOUS
 62
     4
100
AcDbLine
 10
369.443525
 20
309.349287
 30
0.0
 11
370.243525
 21
309.349287
 31
0.0
  0
LINE
  5
1D1
330
17F
100
AcDbEntity
  8
0
  6
CONTINUOUS
 62
     4
100
AcDbLine
 10
370.743525
 20
309.349287
 30
0.0
 11
375.397371
 21
309.349287
 31
0.0
  0
LINE
  5
1D2
330
17F
100
AcDbEntity
  8
0
  6
CONTINUOUS
 62
     4
100
AcDbLine
 10
375.897371
 20
309.349287
 30
0.0
 11
376.697371
 21
309.349287
 31
0.0
  0
LINE
  5
1D3
330
17F
100
AcDbEntity
  8
0
  6
CONTINUOUS
 62
     4
100
AcDbLine
 10
377.197371
 20
309.349287
 30
0.0
 11
381.851218
 21
309.349287
 31
0.0
  0
LINE
  5
1D4
330
17F
100
AcDbEntity
  8
0
  6
CONTINUOUS
 62
     4
100
AcDbLine
 10
382.351218
 20
309.349287
 30
0.0
 11
383.151218
 21
309.349287
 31
0.0
  0
LINE
  5
1D5
330
17F
100
AcDbEntity
  8
0
  6
CONTINUOUS
 62
     4
100
AcDbLine
 10
383.651218
 20
309.349287
 30
0.0
 11
388.305064
 21
309.349287
 31
0.0
  0
ENDBLK
  5
1D8
330
17F
100
AcDbEntity
  8
0
100
AcDbBlockEnd
  0
BLOCK
  5
1E5
330
1DC
100
AcDbEntity
  8
0
100
AcDbBlockBegin
  2
DIMNDRAFT3D1
 70
     0
 10
0.0
 20
0.0
 30
0.0
  3
DIMNDRAFT3D1
  1

  0
MTEXT
  5
1DD
330
1DC
100
AcDbEntity
  8
1
  6
CONTINUOUS
 62
     4
100
AcDbMText
 10
410.177072
 20
327.011787
 30
0.0
 40
2.5
 41
0.0
 71
     7
 72
     5
  1
\W01.000;\W00.980;108(4.25) 
  7
IDEAS_SIMPLEX
 11
6.123233995736766E-17
 21
1.0
 31
0.0
1001
ACAD
1000
MTEXTBEGIN
1070
    73
1070
     2
1070
    44
1040
0.722892
1000
MTEXTEND
1000
ACAD_MTEXT_DEFINED_HEIGHT_BEGIN
1070
    46
1040
0.2
1000
ACAD_MTEXT_DEFINED_HEIGHT_END
  0
LINE
  5
1DE
330
1DC
100
AcDbEntity
  8
1
  6
CONTINUOUS
 62
     4
100
AcDbLine
 10
305.305064
 20
281.649287
 30
0.0
 11
411.468739
 21
281.649287
 31
0.0
  0
LINE
  5
1DF
330
1DC
100
AcDbEntity
  8
1
  6
CONTINUOUS
 62
     4
100
AcDbLine
 10
305.305064
 20
389.349287
 30
0.0
 11
411.468739
 21
389.349287
 31
0.0
  0
LINE
  5
1E0
330
1DC
100
AcDbEntity
  8
1
  6
CONTINUOUS
 62
     4
100
AcDbLine
 10
409.968739
 20
281.649287
 30
0.0
 11
409.968739
 21
389.349287
 31
0.0
  0
LINE
  5
1E1
330
1DC
100
AcDbEntity
  8
1
  6
CONTINUOUS
 62
     4
100
AcDbLine
 10
409.968739
 20
281.649287
 30
0.0
 11
409.432841
 21
283.649285
 31
0.0
  0
LINE
  5
1E2
330
1DC
100
AcDbEntity
  8
1
  6
CONTINUOUS
 62
     4
100
AcDbLine
 10
409.968739
 20
281.649287
 30
0.0
 11
410.504637
 21
283.649289
 31
0.0
  0
LINE
  5
1E3
330
1DC
100
AcDbEntity
  8
1
  6
CONTINUOUS
 62
     4
100
AcDbLine
 10
409.968739
 20
389.349287
 30
0.0
 11
410.504637
 21
387.349289
 31
0.0
  0
LINE
  5
1E4
330
1DC
100
AcDbEntity
  8
1
  6
CONTINUOUS
 62
     4
100
AcDbLine
 10
409.968739
 20
389.349287
 30
0.0
 11
409.432841
 21
387.349285
 31
0.0
  0
ENDBLK
  5
1E6
330
1DC
100
AcDbEntity
  8
0
100
AcDbBlockEnd
  0
BLOCK
  5
1F0
330
1E8
100
AcDbEntity
  8
0
100
AcDbBlockBegin
  2
DIMNDRAFT3D2
 70
     0
 10
0.0
 20
0.0
 30
0.0
  3
DIMNDRAFT3D2
  1

  0
MTEXT
  5
1E9
330
1E8
100
AcDbEntity
  8
1
  6
CONTINUOUS
 62
     4
100
AcDbMText
 10
378.084737
 20
222.190905
 30
0.0
 40
2.5
 41
0.0
 71
     7
 72
     5
  1
\W01.000;\W01.127;179(%%c7.05) 
  7
IDEAS_SIMPLEX
 11
0.7478626539974703
 21
0.6638534859107543
 31
0.0
1001
ACAD
1000
MTEXTBEGIN
1070
    73
1070
     2
1070
    44
1040
0.722892
1000
MTEXTEND
1000
ACAD_MTEXT_DEFINED_HEIGHT_BEGIN
1070
    46
1040
0.2
1000
ACAD_MTEXT_DEFINED_HEIGHT_END
  0
MTEXT
  5
1EA
330
1E8
100
AcDbEntity
  8
1
  6
CONTINUOUS
 62
     4
100
AcDbMText
 10
374.345424
 20
218.871637
 30
0.0
 40
2.5
 41
0.0
 71
     7
 72
     5
  1
\W01.000;%%c 
  7
IDEAS_SIMPLEX
 11
0.7478626539974703
 21
0.6638534859107543
 31
0.0
1001
ACAD
1000
MTEXTBEGIN
1070
    73
1070
     2
1070
    44
1040
0.722892
1000
MTEXTEND
1000
ACAD_MTEXT_DEFINED_HEIGHT_BEGIN
1070
    46
1040
0.2
1000
ACAD_MTEXT_DEFINED_HEIGHT_END
  0
LINE
  5
1EB
330
1E8
100
AcDbEntity
  8
1
  6
CONTINUOUS
 62
     4
100
AcDbLine
 10
238.371356
 20
97.614713
 30
0.0
 11
395.356521
 21
236.965366
 31
0.0
  0
LINE
  5
1EC
330
1E8
100
AcDbEntity
  8
1
  6
CONTINUOUS
 62
     4
100
AcDbLine
 10
372.238771
 20
216.444487
 30
0.0
 11
371.098806
 21
214.716003
 31
0.0
  0
LINE
  5
1ED
330
1E8
100
AcDbEntity
  8
1
  6
CONTINUOUS
 62
     4
100
AcDbLine
 10
372.238771
 20
216.444487
 30
0.0
 11
370.387287
 21
215.517557
 31
0.0
  0
LINE
  5
1EE
330
1E8
100
AcDbEntity
  8
1
  6
CONTINUOUS
 62
     4
100
AcDbLine
 10
238.371356
 20
97.614713
 30
0.0
 11
239.511322
 21
99.343197
 31
0.0
  0
LINE
  5
1EF
330
1E8
100
AcDbEntity
  8
1
  6
CONTINUOUS
 62
     4
100
AcDbLine
 10
238.371356
 20
97.614713
 30
0.0
 11
240.222841
 21
98.541643
 31
0.0
  0
ENDBLK
  5
1F1
330
1E8
100
AcDbEntity
  8
0
100
AcDbBlockEnd
  0
ENDSEC
  0
SECTION
  2
ENTITIES
  0
LINE
  5
45
330
1F
100
AcDbEntity
  8
1
  6
CONTINUOUS
 62
   251
100
AcDbLine
 10
209.455064
 20
275.299287
 30
0.0
 11
209.455064
 21
395.699287
 31
0.0
  0
LINE
  5
47
330
1F
100
AcDbEntity
  8
1
  6
CONTINUOUS
 62
   251
100
AcDbLine
 10
400.345064
 20
395.699287
 30
0.0
 11
209.455064
 21
395.699287
 31
0.0
  0
LINE
  5
48
330
1F
100
AcDbEntity
  8
1
  6
CONTINUOUS
 62
   251
100
AcDbLine
 10
400.345064
 20
395.699287
 30
0.0
 11
400.345064
 21
275.299287
 31
0.0
  0
LINE
  5
49
330
1F
100
AcDbEntity
  8
1
  6
CONTINUOUS
 62
   251
100
AcDbLine
 10
209.455064
 20
275.299287
 30
0.0
 11
400.345064
 21
275.299287
 31
0.0
  0
LINE
  5
4A
330
1F
100
AcDbEntity
  8
1
  6
CONTINUOUS
 62
   251
100
AcDbLine
 10
209.455064
 20
61.1796
 30
0.0
 11
209.455064
 21
252.8796
 31
0.0
  0
LINE
  5
4B
330
1F
100
AcDbEntity
  8
1
  6
CONTINUOUS
 62
   251
100
AcDbLine
 10
400.345064
 20
252.8796
 30
0.0
 11
209.455064
 21
252.8796
 31
0.0
  0
LINE
  5
4C
330
1F
100
AcDbEntity
  8
1
  6
CONTINUOUS
 62
   251
100
AcDbLine
 10
400.345064
 20
252.8796
 30
0.0
 11
400.345064
 21
61.1796
 31
0.0
  0
LINE
  5
4D
330
1F
100
AcDbEntity
  8
1
  6
CONTINUOUS
 62
   251
100
AcDbLine
 10
209.455064
 20
61.1796
 30
0.0
 11
400.345064
 21
61.1796
 31
0.0
  0
LINE
  5
4E
330
1F
100
AcDbEntity
  8
1
  6
CONTINUOUS
 62
   251
100
AcDbLine
 10
35.631868
 20
61.1796
 30
0.0
 11
35.631868
 21
252.8796
 31
0.0
  0
LINE
  5
4F
330
1F
100
AcDbEntity
  8
1
  6
CONTINUOUS
 62
   251
100
AcDbLine
 10
156.031868
 20
252.8796
 30
0.0
 11
35.631868
 21
252.8796
 31
0.0
  0
LINE
  5
50
330
1F
100
AcDbEntity
  8
1
  6
CONTINUOUS
 62
   251
100
AcDbLine
 10
156.031868
 20
252.8796
 30
0.0
 11
156.031868
 21
61.1796
 31
0.0
  0
LINE
  5
51
330
1F
100
AcDbEntity
  8
1
  6
CONTINUOUS
 62
   251
100
AcDbLine
 10
35.631868
 20
61.1796
 30
0.0
 11
156.031868
 21
61.1796
 31
0.0
  0
LINE
  5
52
330
1F
100
AcDbEntity
  8
1
  6
CONTINUOUS
 62
   251
 60
     1
100
AcDbLine
 10
0.0
 20
0.0
 30
0.0
 11
0.0
 21
420.0
 31
0.0
  0
LINE
  5
53
330
1F
100
AcDbEntity
  8
1
  6
CONTINUOUS
 62
   251
 60
     1
100
AcDbLine
 10
594.0
 20
420.0
 30
0.0
 11
0.0
 21
420.0
 31
0.0
  0
LINE
  5
54
330
1F
100
AcDbEntity
  8
1
  6
CONTINUOUS
 62
   251
 60
     1
100
AcDbLine
 10
594.0
 20
420.0
 30
0.0
 11
594.0
 21
0.0
 31
0.0
  0
LINE
  5
55
330
1F
100
AcDbEntity
  8
1
  6
CONTINUOUS
 62
   251
 60
     1
100
AcDbLine
 10
0.0
 20
0.0
 30
0.0
 11
594.0
 21
0.0
 31
0.0
  0
LINE
  5
56
330
1F
100
AcDbEntity
  8
1
  6
CONTINUOUS
 62
   253
100
AcDbLine
 10
393.805064
 20
281.649287
 30
0.0
 11
215.805064
 21
281.649287
 31
0.0
  0
LINE
  5
57
330
1F
100
AcDbEntity
  8
1
  6
CONTINUOUS
 62
   150
100
AcDbLine
 10
267.393602
 20
281.649287
 30
0.0
 11
267.393602
 21
283.849287
 31
0.0
  0
LINE
  5
58
330
1F
100
AcDbEntity
  8
1
  6
CONTINUOUS
 62
   150
100
AcDbLine
 10
274.784638
 20
283.849287
 30
0.0
 11
274.784638
 21
281.649287
 31
0.0
  0
LINE
  5
59
330
1F
100
AcDbEntity
  8
1
  6
CONTINUOUS
 62
   150
100
AcDbLine
 10
386.378926
 20
281.649287
 30
0.0
 11
386.378926
 21
283.849287
 31
0.0
  0
LINE
  5
5A
330
1F
100
AcDbEntity
  8
1
  6
CONTINUOUS
 62
   150
100
AcDbLine
 10
389.440393
 20
283.849287
 30
0.0
 11
389.440393
 21
281.649287
 31
0.0
  0
LINE
  5
5B
330
1F
100
AcDbEntity
  8
1
  6
CONTINUOUS
 62
   150
100
AcDbLine
 10
221.169735
 20
281.649287
 30
0.0
 11
221.169735
 21
283.849287
 31
0.0
  0
LINE
  5
5C
330
1F
100
AcDbEntity
  8
1
  6
CONTINUOUS
 62
   150
100
AcDbLine
 10
224.231202
 20
283.849287
 30
0.0
 11
224.231202
 21
281.649287
 31
0.0
  0
LINE
  5
5D
330
1F
100
AcDbEntity
  8
1
  6
CONTINUOUS
 62
   253
100
AcDbLine
 10
223.376557
 20
290.849287
 30
0.0
 11
222.804068
 21
284.305709
 31
0.0
  0
LINE
  5
5E
330
1F
100
AcDbEntity
  8
1
  6
CONTINUOUS
 62
   253
100
AcDbLine
 10
225.317248
 20
310.74548
 30
0.0
 11
223.576557
 21
290.849287
 31
0.0
  0
LINE
  5
5F
330
1F
100
AcDbEntity
  8
1
  6
CONTINUOUS
 62
   253
100
AcDbLine
 10
387.033571
 20
290.849287
 30
0.0
 11
385.292879
 21
310.74548
 31
0.0
  0
LINE
  5
60
330
1F
100
AcDbEntity
  8
1
  6
CONTINUOUS
 62
   150
100
AcDbLine
 10
335.825489
 20
281.649287
 30
0.0
 11
335.825489
 21
283.849287
 31
0.0
  0
LINE
  5
61
330
1F
100
AcDbEntity
  8
1
  6
CONTINUOUS
 62
   150
100
AcDbLine
 10
343.216526
 20
283.849287
 30
0.0
 11
343.216526
 21
281.649287
 31
0.0
  0
LINE
  5
62
330
1F
100
AcDbEntity
  8
1
  6
CONTINUOUS
 62
   253
100
AcDbLine
 10
215.805064
 20
283.849287
 30
0.0
 11
215.805064
 21
281.649287
 31
0.0
  0
LINE
  5
63
330
1F
100
AcDbEntity
  8
1
  6
CONTINUOUS
 62
   253
100
AcDbLine
 10
393.805064
 20
283.849287
 30
0.0
 11
393.805064
 21
281.649287
 31
0.0
  0
LINE
  5
64
330
1F
100
AcDbEntity
  8
1
  6
CONTINUOUS
 62
   253
100
AcDbLine
 10
387.80606
 20
284.305709
 30
0.0
 11
387.233571
 21
290.849287
 31
0.0
  0
LINE
  5
65
330
1F
100
AcDbEntity
  8
1
  6
CONTINUOUS
 62
   253
100
AcDbLine
 10
387.80606
 20
284.305709
 30
0.0
 11
222.804068
 21
284.305709
 31
0.0
  0
LINE
  5
66
330
1F
100
AcDbEntity
  8
1
  6
CONTINUOUS
 62
   150
100
AcDbLine
 10
274.784638
 20
281.649287
 30
0.0
 11
267.393602
 21
281.649287
 31
0.0
  0
LINE
  5
67
330
1F
100
AcDbEntity
  8
1
  6
CONTINUOUS
 62
   150
100
AcDbLine
 10
267.393602
 20
283.849287
 30
0.0
 11
274.784638
 21
283.849287
 31
0.0
  0
LINE
  5
68
330
1F
100
AcDbEntity
  8
1
  6
CONTINUOUS
 62
   150
100
AcDbLine
 10
389.440393
 20
281.649287
 30
0.0
 11
386.378926
 21
281.649287
 31
0.0
  0
LINE
  5
69
330
1F
100
AcDbEntity
  8
1
  6
CONTINUOUS
 62
   150
100
AcDbLine
 10
386.378926
 20
283.849287
 30
0.0
 11
389.440393
 21
283.849287
 31
0.0
  0
LINE
  5
6A
330
1F
100
AcDbEntity
  8
1
  6
CONTINUOUS
 62
   150
100
AcDbLine
 10
224.231202
 20
281.649287
 30
0.0
 11
221.169735
 21
281.649287
 31
0.0
  0
LINE
  5
6B
330
1F
100
AcDbEntity
  8
1
  6
CONTINUOUS
 62
   150
100
AcDbLine
 10
221.169735
 20
283.849287
 30
0.0
 11
224.231202
 21
283.849287
 31
0.0
  0
LINE
  5
6C
330
1F
100
AcDbEntity
  8
1
  6
CONTINUOUS
 62
   253
100
AcDbLine
 10
387.233571
 20
290.849287
 30
0.0
 11
223.376557
 21
290.849287
 31
0.0
  0
LINE
  5
6D
330
1F
100
AcDbEntity
  8
1
  6
CONTINUOUS
 62
   150
100
AcDbLine
 10
343.216526
 20
281.649287
 30
0.0
 11
335.825489
 21
281.649287
 31
0.0
  0
LINE
  5
6E
330
1F
100
AcDbEntity
  8
1
  6
CONTINUOUS
 62
   150
100
AcDbLine
 10
335.825489
 20
283.849287
 30
0.0
 11
343.216526
 21
283.849287
 31
0.0
  0
LINE
  5
6F
330
1F
100
AcDbEntity
  8
1
  6
CONTINUOUS
 62
   253
100
AcDbLine
 10
393.805064
 20
283.849287
 30
0.0
 11
215.805064
 21
283.849287
 31
0.0
  0
LINE
  5
70
330
1F
100
AcDbEntity
  8
1
  6
CONTINUOUS
 62
   253
100
AcDbLine
 10
393.805064
 20
170.371264
 30
0.0
 11
393.805064
 21
143.687936
 31
0.0
  0
LINE
  5
71
330
1F
100
AcDbEntity
  8
1
  6
CONTINUOUS
 62
   150
100
AcDbLine
 10
149.681868
 20
238.103461
 30
0.0
 11
147.481868
 21
238.103461
 31
0.0
  0
LINE
  5
72
330
1F
100
AcDbEntity
  8
1
  6
CONTINUOUS
 62
   150
100
AcDbLine
 10
147.481868
 20
241.164929
 30
0.0
 11
149.681868
 21
241.164929
 31
0.0
  0
LINE
  5
73
330
1F
100
AcDbEntity
  8
1
  6
CONTINUOUS
 62
   150
100
AcDbLine
 10
149.681868
 20
187.550025
 30
0.0
 11
147.481868
 21
187.550025
 31
0.0
  0
LINE
  5
74
330
1F
100
AcDbEntity
  8
1
  6
CONTINUOUS
 62
   150
100
AcDbLine
 10
147.481868
 20
194.941062
 30
0.0
 11
149.681868
 21
194.941062
 31
0.0
  0
LINE
  5
75
330
1F
100
AcDbEntity
  8
1
  6
CONTINUOUS
 62
   253
100
AcDbLine
 10
140.481868
 20
75.101093
 30
0.0
 11
147.025446
 21
74.528604
 31
0.0
  0
LINE
  5
76
330
1F
100
AcDbEntity
  8
1
  6
CONTINUOUS
 62
   150
100
AcDbLine
 10
149.681868
 20
72.894271
 30
0.0
 11
147.481868
 21
72.894271
 31
0.0
  0
LINE
  5
77
330
1F
100
AcDbEntity
  8
1
  6
CONTINUOUS
 62
   150
100
AcDbLine
 10
147.481868
 20
75.955738
 30
0.0
 11
149.681868
 21
75.955738
 31
0.0
  0
LINE
  5
78
330
1F
100
AcDbEntity
  8
1
  6
CONTINUOUS
 62
   150
100
AcDbLine
 10
147.481868
 20
126.509174
 30
0.0
 11
149.681868
 21
126.509174
 31
0.0
  0
LINE
  5
79
330
1F
100
AcDbEntity
  8
1
  6
CONTINUOUS
 62
   150
100
AcDbLine
 10
149.681868
 20
119.118138
 30
0.0
 11
147.481868
 21
119.118138
 31
0.0
  0
LINE
  5
7A
330
1F
100
AcDbEntity
  8
1
  6
CONTINUOUS
 62
   253
100
AcDbLine
 10
149.681868
 20
246.5296
 30
0.0
 11
147.481868
 21
246.5296
 31
0.0
  0
LINE
  5
7B
330
1F
100
AcDbEntity
  8
1
  6
CONTINUOUS
 62
   253
100
AcDbLine
 10
147.481868
 20
67.5296
 30
0.0
 11
149.681868
 21
67.5296
 31
0.0
  0
LINE
  5
7C
330
1F
100
AcDbEntity
  8
1
  6
CONTINUOUS
 62
   253
100
AcDbLine
 10
147.025446
 20
239.530595
 30
0.0
 11
140.481868
 21
238.958107
 31
0.0
  0
LINE
  5
7D
330
1F
100
AcDbEntity
  8
1
  6
CONTINUOUS
 62
   253
100
AcDbLine
 10
140.481868
 20
238.758107
 30
0.0
 11
120.585676
 21
237.017415
 31
0.0
  0
LINE
  5
7E
330
1F
100
AcDbEntity
  8
1
  6
CONTINUOUS
 62
   253
100
AcDbLine
 10
120.585676
 20
77.041784
 30
0.0
 11
140.481868
 21
75.301093
 31
0.0
  0
LINE
  5
7F
330
1F
100
AcDbEntity
  8
1
  6
CONTINUOUS
 62
   150
100
AcDbLine
 10
149.681868
 20
241.164929
 30
0.0
 11
149.681868
 21
238.103461
 31
0.0
  0
LINE
  5
80
330
1F
100
AcDbEntity
  8
1
  6
CONTINUOUS
 62
   150
100
AcDbLine
 10
147.481868
 20
238.103461
 30
0.0
 11
147.481868
 21
241.164929
 31
0.0
  0
LINE
  5
81
330
1F
100
AcDbEntity
  8
1
  6
CONTINUOUS
 62
   150
100
AcDbLine
 10
149.681868
 20
194.941062
 30
0.0
 11
149.681868
 21
187.550025
 31
0.0
  0
LINE
  5
82
330
1F
100
AcDbEntity
  8
1
  6
CONTINUOUS
 62
   150
100
AcDbLine
 10
147.481868
 20
187.550025
 30
0.0
 11
147.481868
 21
194.941062
 31
0.0
  0
LINE
  5
83
330
1F
100
AcDbEntity
  8
1
  6
CONTINUOUS
 62
   253
100
AcDbLine
 10
140.481868
 20
75.101093
 30
0.0
 11
140.481868
 21
238.958107
 31
0.0
  0
LINE
  5
84
330
1F
100
AcDbEntity
  8
1
  6
CONTINUOUS
 62
   253
100
AcDbLine
 10
147.025446
 20
74.528604
 30
0.0
 11
147.025446
 21
239.530595
 31
0.0
  0
LINE
  5
85
330
1F
100
AcDbEntity
  8
1
  6
CONTINUOUS
 62
   150
100
AcDbLine
 10
149.681868
 20
75.955738
 30
0.0
 11
149.681868
 21
72.894271
 31
0.0
  0
LINE
  5
86
330
1F
100
AcDbEntity
  8
1
  6
CONTINUOUS
 62
   150
100
AcDbLine
 10
147.481868
 20
72.894271
 30
0.0
 11
147.481868
 21
75.955738
 31
0.0
  0
LINE
  5
87
330
1F
100
AcDbEntity
  8
1
  6
CONTINUOUS
 62
   150
100
AcDbLine
 10
147.481868
 20
119.118138
 30
0.0
 11
147.481868
 21
126.509174
 31
0.0
  0
LINE
  5
88
330
1F
100
AcDbEntity
  8
1
  6
CONTINUOUS
 62
   150
100
AcDbLine
 10
149.681868
 20
126.509174
 30
0.0
 11
149.681868
 21
119.118138
 31
0.0
  0
LINE
  5
89
330
1F
100
AcDbEntity
  8
1
  6
CONTINUOUS
 62
   253
100
AcDbLine
 10
147.481868
 20
67.5296
 30
0.0
 11
147.481868
 21
246.5296
 31
0.0
  0
LINE
  5
8A
330
1F
100
AcDbEntity
  8
1
  6
CONTINUOUS
 62
   253
100
AcDbLine
 10
149.681868
 20
67.5296
 30
0.0
 11
149.681868
 21
246.5296
 31
0.0
  0
LINE
  5
8B
330
1F
100
AcDbEntity
  8
1
  6
CONTINUOUS
 62
    81
 60
     1
100
AcDbLine
 10
305.305064
 20
281.649287
 30
0.0
 11
305.304064
 21
281.649287
 31
0.0
  0
LINE
  5
8C
102
{ACAD_REACTORS
330
1FB
102
}
330
1F
100
AcDbEntity
  8
1
  6
CONTINUOUS
 62
     4
100
AcDbLine
 10
255.963663
 20
364.162503
 30
0.0
 11
236.708019
 21
385.553541
 31
0.0
  0
LINE
  5
8D
102
{ACAD_REACTORS
330
1FB
102
}
330
1F
100
AcDbEntity
  8
1
  6
CONTINUOUS
 62
     4
100
AcDbLine
 10
251.782188
 20
368.807691
 30
0.0
 11
253.518555
 21
367.679768
 31
0.0
  0
LINE
  5
8E
102
{ACAD_REACTORS
330
1FB
102
}
330
1F
100
AcDbEntity
  8
1
  6
CONTINUOUS
 62
     4
100
AcDbLine
 10
251.782188
 20
368.807691
 30
0.0
 11
252.721966
 21
366.962694
 31
0.0
  0
ARC
  5
8F
330
1F
100
AcDbEntity
  8
1
  6
CONTINUOUS
 62
   253
100
AcDbCircle
 10
388.304157
 20
284.349287
 30
0.0
 40
0.5
100
AcDbArc
 50
185.0
 51
270.0
  0
ARC
  5
90
330
1F
100
AcDbEntity
  8
1
  6
CONTINUOUS
 62
   253
100
AcDbCircle
 10
222.305971
 20
284.349287
 30
0.0
 40
0.5
100
AcDbArc
 50
270.0
 51
355.0
  0
ARC
  5
91
330
1F
100
AcDbEntity
  8
1
  6
CONTINUOUS
 62
   253
100
AcDbCircle
 10
305.305064
 20
309.349287
 30
0.0
 40
80.0
100
AcDbArc
 50
1.0
 51
179.0
  0
ARC
  5
92
330
1F
100
AcDbEntity
  8
1
  6
CONTINUOUS
 62
   150
100
AcDbCircle
 10
305.305064
 20
157.0296
 30
0.0
 40
89.50000000000001
100
AcDbArc
 50
109.938442
 51
115.061558
  0
ARC
  5
93
330
1F
100
AcDbEntity
  8
1
  6
CONTINUOUS
 62
   150
100
AcDbCircle
 10
305.305064
 20
157.0296
 30
0.0
 40
89.50000000000001
100
AcDbArc
 50
19.938442
 51
25.061558
  0
ARC
  5
94
330
1F
100
AcDbEntity
  8
1
  6
CONTINUOUS
 62
   150
100
AcDbCircle
 10
305.305064
 20
157.0296
 30
0.0
 40
89.50000000000001
100
AcDbArc
 50
154.938442
 51
160.061558
  0
ARC
  5
95
330
1F
100
AcDbEntity
  8
1
  6
CONTINUOUS
 62
   150
100
AcDbCircle
 10
305.305064
 20
157.0296
 30
0.0
 40
89.50000000000001
100
AcDbArc
 50
289.938442
 51
295.061558
  0
ARC
  5
96
330
1F
100
AcDbEntity
  8
1
  6
CONTINUOUS
 62
   150
100
AcDbCircle
 10
305.305064
 20
157.0296
 30
0.0
 40
89.50000000000001
100
AcDbArc
 50
244.938442
 51
250.061558
  0
ARC
  5
97
330
1F
100
AcDbEntity
  8
1
  6
CONTINUOUS
 62
   150
100
AcDbCircle
 10
305.305064
 20
157.0296
 30
0.0
 40
89.50000000000001
100
AcDbArc
 50
334.938442
 51
340.061558
  0
ARC
  5
98
330
1F
100
AcDbEntity
  8
1
  6
CONTINUOUS
 62
   150
100
AcDbCircle
 10
305.305064
 20
157.0296
 30
0.0
 40
89.50000000000001
100
AcDbArc
 50
199.938442
 51
205.061558
  0
ARC
  5
99
330
1F
100
AcDbEntity
  8
1
  6
CONTINUOUS
 62
   150
100
AcDbCircle
 10
305.305064
 20
157.0296
 30
0.0
 40
89.50000000000001
100
AcDbArc
 50
64.938442
 51
70.061558
  0
CIRCLE
  5
9A
330
1F
100
AcDbEntity
  8
1
  6
CONTINUOUS
 62
   253
100
AcDbCircle
 10
305.305064
 20
157.0296
 30
0.0
 40
83.00913658876428
  0
ARC
  5
9B
330
1F
100
AcDbEntity
  8
1
  6
CONTINUOUS
 62
   253
100
AcDbCircle
 10
305.305064
 20
157.0296
 30
0.0
 40
89.5
100
AcDbArc
 50
8.57297
 51
351.42703
  0
CIRCLE
  5
9C
330
1F
100
AcDbEntity
  8
1
  6
CONTINUOUS
 62
   253
100
AcDbCircle
 10
305.305064
 20
157.0296
 30
0.0
 40
80.31941090391658
  0
CIRCLE
  5
9D
330
1F
100
AcDbEntity
  8
1
  6
CONTINUOUS
 62
   253
100
AcDbCircle
 10
305.305064
 20
157.0296
 30
0.0
 40
79.73014671447875
  0
CIRCLE
  5
9E
330
1F
100
AcDbEntity
  8
1
  6
CONTINUOUS
 62
   253
100
AcDbCircle
 10
305.305064
 20
157.0296
 30
0.0
 40
77.79280746359642
  0
CIRCLE
  5
9F
330
1F
100
AcDbEntity
  8
1
  6
CONTINUOUS
 62
   253
100
AcDbCircle
 10
305.305064
 20
157.0296
 30
0.0
 40
79.53014671447875
  0
ARC
  5
A0
330
1F
100
AcDbEntity
  8
1
  6
CONTINUOUS
 62
   253
100
AcDbCircle
 10
121.981868
 20
157.0296
 30
0.0
 40
80.0
100
AcDbArc
 50
91.0
 51
269.0
  0
ARC
  5
A1
330
1F
100
AcDbEntity
  8
1
  6
CONTINUOUS
 62
   253
100
AcDbCircle
 10
146.981868
 20
74.030507
 30
0.0
 40
0.5
100
AcDbArc
 50
0.0
 51
85.0
  0
ARC
  5
A2
330
1F
100
AcDbEntity
  8
1
  6
CONTINUOUS
 62
   253
100
AcDbCircle
 10
146.981868
 20
240.028693
 30
0.0
 40
0.5
100
AcDbArc
 50
275.0
 51
0.0
  0
MTEXT
  5
A4
330
1F
100
AcDbEntity
  8
1
  6
CONTINUOUS
 62
     4
100
AcDbMText
 10
33.110656
 20
384.922857
 30
0.0
 40
3.2
 41
0.0
 71
     7
 72
     5
  1
\W00.625;\H3.84;
  7
IDEAS_KANJI
1001
ACAD
1000
MTEXTBEGIN
1070
    73
1070
     2
1070
    44
1040
0.783133
1000
MTEXTEND
1000
ACAD_MTEXT_DEFINED_HEIGHT_BEGIN
1070
    46
1040
0.2
1000
ACAD_MTEXT_DEFINED_HEIGHT_END
  0
TOLERANCE
  5
A6
330
1F
100
AcDbEntity
  8
1
  6
CONTINUOUS
 62
     4
100
AcDbFcf
  3
STANDARD
 10
32.630656
 20
387.555115
 30
0.0
  1
%%v\W0.681;DU10-S-VB%%v
1001
ACAD
1000
DSTYLE
1002
{
1070
   340
1005
A3
1070
   271
1070
     2
1070
   272
1070
     2
1070
   177
1070
     4
1070
   176
1070
     4
1070
   178
1070
     4
1070
    48
1040
-0.005
1070
    41
1041
2.0
1070
    42
1041
0.0
1070
    44
1041
0.0
1070
   140
1041
3.2
1070
   343
1005
A7
1070
   344
1005
A7
1002
}
  0
MTEXT
  5
AD
330
1F
100
AcDbEntity
  8
1
  6
CONTINUOUS
 62
     4
100
AcDbMText
 10
57.060656
 20
384.922857
 30
0.0
 40
3.2
 41
0.0
 71
     7
 72
     5
  1
\W00.625;\H3.20;
  7
IDEAS_KANJI
1001
ACAD
1000
MTEXTBEGIN
1070
    73
1070
     2
1070
    44
1040
0.783133
1000
MTEXTEND
1000
ACAD_MTEXT_DEFINED_HEIGHT_BEGIN
1070
    46
1040
0.2
1000
ACAD_MTEXT_DEFINED_HEIGHT_END
  0
MTEXT
  5
AE
330
1F
100
AcDbEntity
  8
1
  6
CONTINUOUS
 62
     4
100
AcDbMText
 10
425.245521
 20
60.466359
 30
0.0
 40
3.2
 41
0.0
 71
     7
 72
     5
  1
\W00.673;\H3.84;Unit : mm (in.)\H3.20; 
  7
IDEAS_KANJI
1001
ACAD
1000
MTEXTBEGIN
1070
    73
1070
     2
1070
    44
1040
0.783133
1000
MTEXTEND
1000
ACAD_MTEXT_DEFINED_HEIGHT_BEGIN
1070
    46
1040
0.2
1000
ACAD_MTEXT_DEFINED_HEIGHT_END
  0
INSERT
  5
11E
330
1F
100
AcDbEntity
  8
1
  6
CENTER
 62
     4
100
AcDbBlockReference
  2
CENTERLINE1
 10
0.0
 20
0.0
 30
0.0
  0
INSERT
  5
17C
330
1F
100
AcDbEntity
  8
1
  6
CENTER
 62
     4
100
AcDbBlockReference
  2
CENTERLINE2
 10
0.0
 20
0.0
 30
0.0
  0
INSERT
  5
1D6
330
1F
100
AcDbEntity
  8
1
  6
CENTER
 62
     4
100
AcDbBlockReference
  2
CENTERLINE3
 10
0.0
 20
0.0
 30
0.0
  0
MTEXT
  5
1D9
102
{ACAD_REACTORS
330
1FB
102
}
330
1F
100
AcDbEntity
  8
1
  6
CONTINUOUS
 62
     4
100
AcDbMText
 10
236.887697
 20
385.042544
 30
0.0
 40
2.5
 41
0.0
 71
     7
 72
     5
  1
\W00.820;R 
  7
IDEAS_SIMPLEX
 11
0.6690359433525008
 21
-0.7432300495152422
 31
0.0
1001
ACAD
1000
MTEXTBEGIN
1070
    73
1070
     2
1070
    44
1040
0.722892
1000
MTEXTEND
1000
ACAD_MTEXT_DEFINED_HEIGHT_BEGIN
1070
    46
1040
0.2
1000
ACAD_MTEXT_DEFINED_HEIGHT_END
  0
MTEXT
  5
1DB
102
{ACAD_REACTORS
330
1FB
102
}
330
1F
100
AcDbEntity
  8
1
  6
CONTINUOUS
 62
     4
100
AcDbMText
 10
238.075236
 20
383.723311
 30
0.0
 40
2.5
 41
0.0
 71
     7
 72
     5
  1
\W00.974;80(R3.15) 
  7
IDEAS_SIMPLEX
 11
0.6690359433525008
 21
-0.7432300495152422
 31
0.0
1001
ACAD
1000
MTEXTBEGIN
1070
    73
1070
     2
1070
    44
1040
0.722892
1000
MTEXTEND
1000
ACAD_MTEXT_DEFINED_HEIGHT_BEGIN
1070
    46
1040
0.2
1000
ACAD_MTEXT_DEFINED_HEIGHT_END
  0
DIMENSION
  5
1E7
330
1F
100
AcDbEntity
  8
1
  6
CONTINUOUS
 62
     4
100
AcDbDimension
  2
DIMNDRAFT3D1
 10
409.968739
 20
389.349287
 30
0.0
 11
409.968739
 21
326.511787
 31
0.0
 70
   160
  1
\C4;108(4.25)
  3
STANDARD
100
AcDbAlignedDimension
 13
305.305064
 23
281.649287
 33
0.0
 14
305.305064
 24
389.349287
 34
0.0
 50
90.0
100
AcDbRotatedDimension
1001
ACAD
1000
DSTYLE
1002
{
1070
   287
1070
     3
1070
     7
1000
OPEN
1070
     6
1000
OPEN
1070
    74
1070
     0
1070
   279
1070
     0
1070
   172
1070
     1
1070
   173
1070
     1
1070
   340
1005
1DA
1070
   271
1070
     1
1070
   272
1070
     2
1070
    77
1070
     1
1070
    73
1070
     0
1070
   177
1070
     4
1070
   176
1070
     4
1070
   178
1070
     4
1070
    78
1070
     8
1070
    48
1040
-0.005
1070
    41
1041
2.0
1070
   147
1041
0.625
1070
    42
1041
0.0
1070
    44
1041
1.5
1070
   140
1041
2.5
1002
}
  0
DIMENSION
  5
1F2
330
1F
100
AcDbEntity
  8
1
  6
CONTINUOUS
 62
     4
100
AcDbDimension
  2
DIMNDRAFT3D2
 10
238.371356
 20
97.614713
 30
0.0
 11
377.157594
 21
222.482197
 31
0.0
 70
   163
  1
\C4;%%c 179(%%c7.05)
  3
STANDARD
100
AcDbDiametricDimension
 15
372.238771
 25
216.444487
 35
0.0
 40
0.0
1001
ACAD
1000
DSTYLE
1002
{
1070
   287
1070
     3
1070
     7
1000
OPEN
1070
     6
1000
OPEN
1070
   172
1070
     1
1070
   279
1070
     0
1070
   173
1070
     1
1070
   340
1005
1DA
1070
    75
1070
     1
1070
    76
1070
     1
1070
   271
1070
     1
1070
   272
1070
     2
1070
    77
1070
     1
1070
    73
1070
     0
1070
   177
1070
     4
1070
   176
1070
     4
1070
   178
1070
     4
1070
    48
1040
-0.005
1070
    41
1041
2.0
1070
   147
1041
0.625
1070
    42
1041
0.0
1070
    44
1041
1.5
1070
   140
1041
2.5
1002
}
  0
ENDSEC
  0
SECTION
  2
OBJECTS
  0
DICTIONARY
  5
C
330
0
100
AcDbDictionary
  3
ACAD_GROUP
350
D
  3
ACAD_LAYOUT
350
1A
  3
ACAD_MATERIAL
350
3B
  3
ACAD_MLEADERSTYLE
350
22E
  3
ACAD_MLINESTYLE
350
17
  3
ACAD_PLOTSETTINGS
350
19
  3
ACAD_VISUALSTYLE
350
2A
  3
ACDBHEADERROUNDTRIPXREC
350
20C
  3
ACDBVARIABLEDICTIONARY
350
22C
  0
DICTIONARY
  5
D
102
{ACAD_REACTORS
330
C
102
}
330
C
100
AcDbDictionary
  3
DIMENSION
350
1FB
  0
DICTIONARY
  5
1A
102
{ACAD_REACTORS
330
C
102
}
330
C
100
AcDbDictionary
  0
DICTIONARY
  5
3B
102
{ACAD_REACTORS
330
C
102
}
330
C
100
AcDbDictionary
  3
BYBLOCK
350
3D
  3
BYLAYER
350
3C
  3
GLOBAL
350
3E
  0
DICTIONARY
  5
22E
102
{ACAD_REACTORS
330
C
102
}
330
C
100
AcDbDictionary
  0
DICTIONARY
  5
17
102
{ACAD_REACTORS
330
C
102
}
330
C
100
AcDbDictionary
  3
STANDARD
350
18
  0
DICTIONARY
  5
19
102
{ACAD_REACTORS
330
C
102
}
330
C
100
AcDbDictionary
  0
DICTIONARY
  5
2A
102
{ACAD_REACTORS
330
C
102
}
330
C
100
AcDbDictionary
  3
2DWIREFRAME
350
2F
  3
3D_HIDDEN
350
31
  3
3DWIREFRAME
350
30
  3
BASIC
350
32
  3
BRIGHTEN
350
36
  3
COLORCHANGE
350
3A
  3
CONCEPTUAL
350
34
  3
DIM
350
35
  3
FACEPATTERN
350
39
  3
FLAT
350
2B
  3
FLATWITHEDGES
350
2C
  3
GOURAUD
350
2D
  3
GOURAUDWITHEDGES
350
2E
  3
LINEPATTERN
350
38
  3
REALISTIC
350
33
  3
THICKEN
350
37
  0
DICTIONARY
  5
20C
102
{ACAD_REACTORS
330
C
102
}
330
C
100
AcDbDictionary
  3
CEPSNTYPE
350
215
  3
DIMSTYLEDATA
350
22B
  3
FINGERPRINTGUID
350
216
  3
HYPERLINKBASE
350
20F
  3
INSUNITS
350
214
  3
LAYOUTDICT
350
211
  3
LWETCUNION
350
213
  3
PLOTSETDICT
350
212
  3
PSVPSCALE
350
218
  3
PUCSBASE
350
21B
  3
PUCSORGBACK
350
221
  3
PUCSORGBOTTOM
350
21D
  3
PUCSORGFRONT
350
220
  3
PUCSORGLEFT
350
21E
  3
PUCSORGRIGHT
350
21F
  3
PUCSORGTOP
350
21C
  3
PUCSORTHOREF
350
219
  3
PUCSORTHOVIEW
350
21A
  3
STYLESHEET
350
210
  3
TSTACKALIGN
350
20D
  3
TSTACKSIZE
350
20E
  3
UCSBASE
350
224
  3
UCSORGBACK
350
22A
  3
UCSORGBOTTOM
350
226
  3
UCSORGFRONT
350
229
  3
UCSORGLEFT
350
227
  3
UCSORGRIGHT
350
228
  3
UCSORGTOP
350
225
  3
UCSORTHOREF
350
222
  3
UCSORTHOVIEW
350
223
  3
VERSIONGUID
350
217
  0
DICTIONARY
  5
22C
102
{ACAD_REACTORS
330
C
102
}
330
C
100
AcDbDictionary
  3
DIMASSOC
350
22F
  3
HIDETEXT
350
230
  0
GROUP
  5
1FB
102
{ACAD_REACTORS
330
D
102
}
330
D
100
AcDbGroup
300

 70
     0
 71
     1
340
8C
340
1D9
340
1DB
340
8D
340
8E
  0
MATERIAL
  5
3D
102
{ACAD_REACTORS
330
3B
102
}
102
{ACAD_XDICTIONARY
360
233
102
}
330
3B
100
AcDbMaterial
  1
ByBlock
  0
MATERIAL
  5
3C
102
{ACAD_REACTORS
330
3B
102
}
102
{ACAD_XDICTIONARY
360
231
102
}
330
3B
100
AcDbMaterial
  1
ByLayer
  0
MATERIAL
  5
3E
102
{ACAD_REACTORS
330
3B
102
}
102
{ACAD_XDICTIONARY
360
235
102
}
330
3B
100
AcDbMaterial
  1
Global
  0
MLINESTYLE
  5
18
102
{ACAD_REACTORS
330
17
102
}
330
17
100
AcDbMlineStyle
  2
Standard
 70
     0
  3

 62
   256
 51
90.0
 52
90.0
 71
     2
 49
0.5
 62
   256
  6
BYLAYER
 49
-0.5
 62
   256
  6
BYLAYER
  0
ACAD_PROXY_OBJECT
  5
2F
102
{ACAD_REACTORS
330
2A
102
}
330
2A
100
AcDbProxyObject
 90
      499
 91
      501
 93
      436
310
42CC9915DA5C99599C985B595049028333333333333E3BF0000000000000FB0107901411070040501600405405064090741402480A0340
1001
ACAD
1000
AcDbSavedByObjectVersion
1070
     0
  0
ACAD_PROXY_OBJECT
  5
31
102
{ACAD_REACTORS
330
2A
102
}
330
2A
100
AcDbProxyObject
 90
      499
 91
      501
 93
      500
310
424CD108121A5919195B90640502408333333333333E3BF0000000000000FB01079024090700405020000000000001110200405405064090740C02480A0340
1001
ACAD
1000
AcDbSavedByObjectVersion
1070
     0
  0
ACAD_PROXY_OBJECT
  5
30
102
{ACAD_REACTORS
330
2A
102
}
330
2A
100
AcDbProxyObject
 90
      499
 91
      501
 93
      436
310
42CCD915DA5C99599C985B595059028333333333333E3BF0000000000000FB0107901411070040501600405405064090741402480A0340
1001
ACAD
1000
AcDbSavedByObjectVersion
1070
     0
  0
ACAD_PROXY_OBJECT
  5
32
102
{ACAD_REACTORS
330
2A
102
}
330
2A
100
AcDbProxyObject
 90
      499
 91
      501
 93
      388
310
4150985CDA58D07406404333333333333E3BF0000000000000FB0107A41107004050150841D405064090741402480A0350
1001
ACAD
1000
AcDbSavedByObjectVersion
1070
     0
  0
ACAD_PROXY_OBJECT
  5
36
102
{ACAD_REACTORS
330
2A
102
}
330
2A
100
AcDbProxyObject
 90
      499
 91
      501
 93
      428
310
42109C9A59DA1D195B90C409028333333333333E3BF0000000000000FB010790141107004050150841D405064090741402480A029950
1001
ACAD
1000
AcDbSavedByObjectVersion
1070
     0
  0
ACAD_PROXY_OBJECT
  5
3A
102
{ACAD_REACTORS
330
2A
102
}
330
2A
100
AcDbProxyObject
 90
      499
 91
      501
 93
      452
310
42D0DBDB1BDC90DA185B99D95104090240C333333333333E3BF0000000000000FB0108901411070040501508421405064090741402480A0350
1001
ACAD
1000
AcDbSavedByObjectVersion
1070
     0
  0
ACAD_PROXY_OBJECT
  5
34
102
{ACAD_REACTORS
330
2A
102
}
330
2A
100
AcDbProxyObject
 90
      499
 91
      501
 93
      500
310
4290DBDB98D95C1D1D585B10940D028333333333333E3BF0000000000000FB0107902409070040501000000000000111010841D405064090740C02480A0340
1001
ACAD
1000
AcDbSavedByObjectVersion
1070
     0
  0
ACAD_PROXY_OBJECT
  5
35
102
{ACAD_REACTORS
330
2A
102
}
330
2A
100
AcDbProxyObject
 90
      499
 91
      501
 93
      412
310
40D11A5B50B409028333333333333E3BF0000000000000FB010790141107004050150841D405064090741402480A02677FFFFFD0
1001
ACAD
1000
AcDbSavedByObjectVersion
1070
     0
  0
ACAD_PROXY_OBJECT
  5
39
102
{ACAD_REACTORS
330
2A
102
}
330
2A
100
AcDbProxyObject
 90
      499
 91
      501
 93
      444
310
42D19858D95C185D1D195C9B90F409028333333333333E3BF0000000000000FB010790141107004050150841D405064090741402480A0350
1001
ACAD
1000
AcDbSavedByObjectVersion
1070
     0
  0
ACAD_PROXY_OBJECT
  5
2B
102
{ACAD_REACTORS
330
2A
102
}
330
2A
100
AcDbProxyObject
 90
      499
 91
      501
 93
      388
310
41119B185D240901404333333333333E3BF0000000000000F9010740A41107004050150841D405064090741402480A1B50
1001
ACAD
1000
AcDbSavedByObjectVersion
1070
     0
  0
ACAD_PROXY_OBJECT
  5
2C
102
{ACAD_REACTORS
330
2A
102
}
330
2A
100
AcDbProxyObject
 90
      499
 91
      501
 93
      476
310
43519B185D15DA5D1A115919D95CD0140901404333333333333E3BF0000000000000F9010740901411070040501600405405064090741402480A1B50
1001
ACAD
1000
AcDbSavedByObjectVersion
1070
     0
  0
ACAD_PROXY_OBJECT
  5
2D
102
{ACAD_REACTORS
330
2A
102
}
330
2A
100
AcDbProxyObject
 90
      499
 91
      501
 93
      412
310
41D1DBDD5C985D5910240902404333333333333E3BF0000000000000F9010740A411070040501641D405064090741402480A1B50
1001
ACAD
1000
AcDbSavedByObjectVersion
1070
     0
  0
ACAD_PROXY_OBJECT
  5
2E
102
{ACAD_REACTORS
330
2A
102
}
330
2A
100
AcDbProxyObject
 90
      499
 91
      501
 93
      500
310
4411DBDD5C985D5915DA5D1A115919D95CD0340902404333333333333E3BF0000000000000F9010740901411070040501600405405064090741402480A1B50
1001
ACAD
1000
AcDbSavedByObjectVersion
1070
     0
  0
ACAD_PROXY_OBJECT
  5
38
102
{ACAD_REACTORS
330
2A
102
}
330
2A
100
AcDbProxyObject
 90
      499
 91
      501
 93
      444
310
42D31A5B995C185D1D195C9B90E409028333333333333E3BF0000000000000FB010790141107004050750841D405064090741402483A0350
1001
ACAD
1000
AcDbSavedByObjectVersion
1070
     0
  0
ACAD_PROXY_OBJECT
  5
33
102
{ACAD_REACTORS
330
2A
102
}
330
2A
100
AcDbProxyObject
 90
      499
 91
      501
 93
      420
310
425499585B1A5CDD1A58D08409028333333333333E3BF0000000000000FB01079019070040501508421405064090741402480A1B40
1001
ACAD
1000
AcDbSavedByObjectVersion
1070
     0
  0
ACAD_PROXY_OBJECT
  5
37
102
{ACAD_REACTORS
330
2A
102
}
330
2A
100
AcDbProxyObject
 90
      499
 91
      501
 93
      412
310
41D51A1A58DAD95B90D409028333333333333E3BF0000000000000FB010790141107004050150C41D405064090741402480A0350
1001
ACAD
1000
AcDbSavedByObjectVersion
1070
     0
  0
XRECORD
  5
215
102
{ACAD_REACTORS
330
20C
102
}
330
20C
100
AcDbXrecord
 90
        0
  0
XRECORD
  5
22B
102
{ACAD_REACTORS
330
20C
102
}
330
20C
100
AcDbXrecord
1000
DSTYLE
1002
{
1070
   171
 70
     2
1070
   143
 40
25.4
1070
   274
 70
     2
1070
    41
 40
0.18
1070
   141
 40
0.09
1070
   271
 70
     4
1070
    43
 40
0.38
1070
   278
 70
    46
1070
    44
 40
0.18
1070
    42
 40
0.0625
1070
   147
 40
0.09
1070
    77
 70
     0
1070
   272
 70
     4
1070
    73
 70
     1
1070
   172
 70
     0
1070
    74
 70
     1
1070
   283
 70
     1
1070
   340
340
11
1070
   140
 40
0.18
1070
   284
 70
     0
1070
    78
 70
     0
1002
}
  0
XRECORD
  5
216
102
{ACAD_REACTORS
330
20C
102
}
330
20C
100
AcDbXrecord
  1
{56F257DC-A090-4CDE-89F1-4690E8D8DE89}
  0
XRECORD
  5
20F
102
{ACAD_REACTORS
330
20C
102
}
330
20C
100
AcDbXrecord
  1

  0
XRECORD
  5
214
102
{ACAD_REACTORS
330
20C
102
}
330
20C
100
AcDbXrecord
 90
        4
  0
XRECORD
  5
211
102
{ACAD_REACTORS
330
20C
102
}
330
20C
100
AcDbXrecord
340
1A
  0
XRECORD
  5
213
102
{ACAD_REACTORS
330
20C
102
}
330
20C
100
AcDbXrecord
 90
    10781
  0
XRECORD
  5
212
102
{ACAD_REACTORS
330
20C
102
}
330
20C
100
AcDbXrecord
340
19
  0
XRECORD
  5
218
102
{ACAD_REACTORS
330
20C
102
}
330
20C
100
AcDbXrecord
 40
0.0
  0
XRECORD
  5
21B
102
{ACAD_REACTORS
330
20C
102
}
330
20C
100
AcDbXrecord
340
0
  0
XRECORD
  5
221
102
{ACAD_REACTORS
330
20C
102
}
330
20C
100
AcDbXrecord
 10
0.0
 20
0.0
 30
0.0
  0
XRECORD
  5
21D
102
{ACAD_REACTORS
330
20C
102
}
330
20C
100
AcDbXrecord
 10
0.0
 20
0.0
 30
0.0
  0
XRECORD
  5
220
102
{ACAD_REACTORS
330
20C
102
}
330
20C
100
AcDbXrecord
 10
0.0
 20
0.0
 30
0.0
  0
XRECORD
  5
21E
102
{ACAD_REACTORS
330
20C
102
}
330
20C
100
AcDbXrecord
 10
0.0
 20
0.0
 30
0.0
  0
XRECORD
  5
21F
102
{ACAD_REACTORS
330
20C
102
}
330
20C
100
AcDbXrecord
 10
0.0
 20
0.0
 30
0.0
  0
XRECORD
  5
21C
102
{ACAD_REACTORS
330
20C
102
}
330
20C
100
AcDbXrecord
 10
0.0
 20
0.0
 30
0.0
  0
XRECORD
  5
219
102
{ACAD_REACTORS
330
20C
102
}
330
20C
100
AcDbXrecord
340
0
  0
XRECORD
  5
21A
102
{ACAD_REACTORS
330
20C
102
}
330
20C
100
AcDbXrecord
 70
     0
  0
XRECORD
  5
210
102
{ACAD_REACTORS
330
20C
102
}
330
20C
100
AcDbXrecord
  1

  0
XRECORD
  5
20D
102
{ACAD_REACTORS
330
20C
102
}
330
20C
100
AcDbXrecord
 90
        1
  0
XRECORD
  5
20E
102
{ACAD_REACTORS
330
20C
102
}
330
20C
100
AcDbXrecord
 90
       70
  0
XRECORD
  5
224
102
{ACAD_REACTORS
330
20C
102
}
330
20C
100
AcDbXrecord
340
0
  0
XRECORD
  5
22A
102
{ACAD_REACTORS
330
20C
102
}
330
20C
100
AcDbXrecord
 10
0.0
 20
0.0
 30
0.0
  0
XRECORD
  5
226
102
{ACAD_REACTORS
330
20C
102
}
330
20C
100
AcDbXrecord
 10
0.0
 20
0.0
 30
0.0
  0
XRECORD
  5
229
102
{ACAD_REACTORS
330
20C
102
}
330
20C
100
AcDbXrecord
 10
0.0
 20
0.0
 30
0.0
  0
XRECORD
  5
227
102
{ACAD_REACTORS
330
20C
102
}
330
20C
100
AcDbXrecord
 10
0.0
 20
0.0
 30
0.0
  0
XRECORD
  5
228
102
{ACAD_REACTORS
330
20C
102
}
330
20C
100
AcDbXrecord
 10
0.0
 20
0.0
 30
0.0
  0
XRECORD
  5
225
102
{ACAD_REACTORS
330
20C
102
}
330
20C
100
AcDbXrecord
 10
0.0
 20
0.0
 30
0.0
  0
XRECORD
  5
222
102
{ACAD_REACTORS
330
20C
102
}
330
20C
100
AcDbXrecord
340
0
  0
XRECORD
  5
223
102
{ACAD_REACTORS
330
20C
102
}
330
20C
100
AcDbXrecord
 70
     0
  0
XRECORD
  5
217
102
{ACAD_REACTORS
330
20C
102
}
330
20C
100
AcDbXrecord
  1
{FAEB1C32-E019-11D5-929B-00C0DF256EC4}
  0
DICTIONARYVAR
  5
22F
102
{ACAD_REACTORS
330
22C
102
}
330
22C
100
DictionaryVariables
280
     0
  1
2
  0
DICTIONARYVAR
  5
230
102
{ACAD_REACTORS
330
22C
102
}
330
22C
100
DictionaryVariables
280
     0
  1
1
  0
DICTIONARY
  5
233
330
3D
100
AcDbDictionary
280
     1
  3
ACAD_XREC_ROUNDTRIP
360
234
  0
DICTIONARY
  5
231
330
3C
100
AcDbDictionary
280
     1
  3
ACAD_XREC_ROUNDTRIP
360
232
  0
DICTIONARY
  5
235
330
3E
100
AcDbDictionary
280
     1
  3
ACAD_XREC_ROUNDTRIP
360
236
  0
XRECORD
  5
234
102
{ACAD_REACTORS
330
233
102
}
330
233
100
AcDbXrecord
102
MATERIAL
148
0.0
149
0.0
149
0.0
 93
        0
 94
      127
282
     0
 72
     1
 77
     1
171
     1
175
     1
179
     1
273
     0
  0
XRECORD
  5
232
102
{ACAD_REACTORS
330
231
102
}
330
231
100
AcDbXrecord
102
MATERIAL
148
0.0
149
0.0
149
0.0
 93
        0
 94
      127
282
     0
 72
     1
 77
     1
171
     1
175
     1
179
     1
273
     0
  0
XRECORD
  5
236
102
{ACAD_REACTORS
330
235
102
}
330
235
100
AcDbXrecord
102
MATERIAL
148
0.0
149
0.0
149
0.0
 93
        0
 94
      127
282
     0
 72
     1
 77
     1
171
     1
175
     1
179
     1
273
     0
  0
ENDSEC
  0
EOF
